Browse Collections Artists Sources   Search Dates

Add Show    List Management    Help


Grateful Dead 04/15/83
Community War Memorial Auditorium, Rochester, NY
Comments Add Comment    Source Collectors    Add to Collection    Add to Want List    History
Source # 143055 Other Sources
Entered by Matt Vernon
Checksums ffp , flac-md5
Disc Counts 0 / 0
Media Size
Date Circulated
Date Added
08/31/2018
08/31/2018
Source Summary flac24; Recording Info: (FOB) Audio Technica ATM11 > Cassette Master (Sony WM-D6C/Maxell UDXL-II/Dolby B); Transfer Info: Cassette Master (Nakamichi CR-7A) > Tascam DA-3000 (DSF 1-bit/5.6 MHz) > dBpoweramp > Adobe Audition CC2015 > Samplitude Pro X3 Suite > FLAC/24; Recorded, Transferred and Mastered by Charlie Miller 
  Archive
Source Information - Download Text | Download Zip
Grateful Dead - April 15, 1983
War Memorial Auditorium - Rochester, NY

Recording Info:
(FOB) Audio Technica ATM11 > Cassette Master (Sony WM-D6C/Maxell UDXL-II/Dolby B)

Transfer Info:
Cassette Master (Nakamichi CR-7A) > Tascam DA-3000 (DSF 1-bit/5.6 MHz) >
dBpoweramp > Adobe Audition CC2015 > Samplitude Pro X3 Suite > FLAC/24
(1 DVD FLAC)

Recorded, Transferred and Mastered by Charlie Miller
[email protected]
August 30, 2008

Patch Info:
(FOB) Nakamichi 300/CP4 > Cassette Master > FLAC (shnid=135460) supplies:
He's Gone (12:53 - 13:01)
Little Star (0:31 - 0:39)
Drums (0:13 - end of track)
Space (0:00 - 0:48)
Around And Around (0:00 - 0:07) (0:56 - 1:09)

Notes:
-- This was the first Grateful Dead show I taped
-- Recorded 15 feet in front of sbd, about 10 feet to the right
-- I was patched out of a Sony TC-D5M (lead deck)
-- This source is an upgraded transfer (this is the last one)
-- I chose to playback without dolby since it sounded better
-- Patch source recorded by Brian Schley
-- Thanks to Joe B. Jones for the pitch correction settings

Set One:
01 - Tuning
02 - Shakedown Street
03 - My Brother Esau
04 - Brown Eyed Women
05 - Little Red Rooster
06 - Dire Wolf
07 - Lazy Lightning >
08 - Supplication >
09 - Deal

Set Two:
10 - Tuning
11 - Feel Like A Stranger
12 - Samson And Delilah
13 - Ship Of Fools
14 - Maybe You Know
15 - He's Gone >
16 - Little Star >
17 - Drums >
18 - Space >
19 - Throwing Stones >
20 - Not Fade Away >
21 - Goin' Down The Road Feeling Bad >
22 - Around And Around >
23 - Johnny B. Goode

Encore:
24 - It's All Over Now, Baby Blue


SHNTOOL OUTPUT:
    length     expanded size    cdr  WAVE problems  fmt   ratio  filename
     3:50.099     132537278 B   cxx   --   ---xx   flac  0.6789  01 Tuning.flac
    13:56.542     481848410 B   cxx   --   ---xx   flac  0.6997  02 Shakedown Street.flac
     7:05.642     245169704 B   cxx   --   ---xx   flac  0.6947  03 My Brother Esau.flac
     6:55.108     239102174 B   cxx   --   ---xx   flac  0.6955  04 Brown Eyed Women.flac
     9:33.329     330237704 B   cxx   --   ---xx   flac  0.6997  05 Little Red Rooster.flac
     4:02.938     139932380 B   cxx   --   ---xx   flac  0.7017  06 Dire Wolf.flac
     3:46.730     130596716 B   cxx   --   ---xx   flac  0.7048  07 Lazy Lightning.flac
     6:36.165     228190820 B   cxx   --   ---xx   flac  0.7058  08 Supplication.flac
     7:41.724     265953338 B   cxx   --   ---xx   flac  0.7026  09 Deal.flac
     0:58.343      33605852 B   cxx   --   ---xx   flac  0.6862  10 Tuning.flac
     9:29.305     327919868 B   cxx   --   ---xx   flac  0.7028  11 Feel Like A Stranger.flac
     9:01.646     311988050 B   cxx   --   ---xx   flac  0.7017  12 Samson And Delilah.flac
     8:33.905     296009048 B   cxx   --   ---xx   flac  0.6983  13 Ship Of Fools.flac
     5:01.891     173889428 B   cxx   --   ---xx   flac  0.7155  14 Maybe You Know.flac
    13:03.688     451404386 B   cxx   --   ---xx   flac  0.7035  15 He's Gone.flac
     5:58.399     206437820 B   cxx   --   ---xx   flac  0.6992  16 Little Star.flac
     6:43.533     232435214 B   cxx   --   ---xx   flac  0.5597  17 Drums.flac
    11:13.411     387884906 B   cxx   --   ---xx   flac  0.6819  18 Space.flac
     9:42.421     335474582 B   cxx   --   ---xx   flac  0.7018  19 Throwing Stones.flac
     6:05.378     210457496 B   cxx   --   ---xx   flac  0.7069  20 Not Fade Away.flac
     6:44.882     233211884 B   cxx   --   ---xx   flac  0.7144  21 Goin' Down The Road Feeling Bad.flac
     3:41.631     127659464 B   cxx   --   ---xx   flac  0.6979  22 Around And Around.flac
     4:25.123     152711024 B   cxx   --   ---xx   flac  0.7068  23 Johnny B Goode.flac
     7:14.939     250524626 B   cxx   --   ---xx   flac  0.6975  24 It's All Over Now, Baby Blue.flac
   171:26.773    5925182172 B                            0.6946  (24 files)


Show Checksums
ffp
01 Tuning.flac:6d89bca8ac8e04005a94986a63135d88
02 Shakedown Street.flac:db68fb6fe6f0dc6c057e72cbd2bb7506
03 My Brother Esau.flac:a53c4516148a05c22cb0537a1a2e88d0
04 Brown Eyed Women.flac:07e9f058cc086064081a247b862782ff
05 Little Red Rooster.flac:7033e50c06ac06d3c229e429fca8fd4a
06 Dire Wolf.flac:09b11c4205961190fe4fb202d02cca9d
07 Lazy Lightning.flac:7c236d2247288e7f35621bd91352a96a
08 Supplication.flac:4bd47ecf551a10eef5330e02faa90d54
09 Deal.flac:62e325d5964687f8ff917f0b732e053b
10 Tuning.flac:a6fba9f44ccf64568149c947c1502d7c
11 Feel Like A Stranger.flac:825774ee8c4059d58029e050742c14cf
12 Samson And Delilah.flac:8d9b761322b54e00f877afb0bc091b69
13 Ship Of Fools.flac:78f83d13efa60f6be458678c6f1e25d1
14 Maybe You Know.flac:9287c0849f2361310d9b7359451eb191
15 He's Gone.flac:022a26aed9035f891fb84cbc95b0cda3
16 Little Star.flac:dd85773b9c8da171a0d88f67a7cab912
17 Drums.flac:a25ef763a4c5f00251f114a255e465f8
18 Space.flac:e4c109ba343f6ff3dfc318a209f088a9
19 Throwing Stones.flac:e09fbc96e7ed1691b5754134178bc403
20 Not Fade Away.flac:f92316e04cd855658e503312c4fdf0c2
21 Goin' Down The Road Feeling Bad.flac:4d7528003962f8fff5838dc39a5f0a03
22 Around And Around.flac:e5d300ba8159b366ba4bb6626e5c3ac2
23 Johnny B Goode.flac:b309894b18c59929263e0e825a1297a4
24 It's All Over Now, Baby Blue.flac:f5ea0f4f4e05b3a769ca63dab37c4e62
flac-md5
af1e4502e22837760bc031ce39171646 *01 Tuning.flac
6571a655fea6003079d46595280e8e7a *02 Shakedown Street.flac
0980c367ff98473fa3810b336d289552 *03 My Brother Esau.flac
ae2c746eeeea64a796a5430a1580b1f4 *04 Brown Eyed Women.flac
1045393e764c00ea3308be1561ad0744 *05 Little Red Rooster.flac
85b38da86ccc26045aa7eede73ac673f *06 Dire Wolf.flac
0655c653bb8f81d389606f7cc3c5e8f7 *07 Lazy Lightning.flac
b3608b0da337e875dd5c17170779f742 *08 Supplication.flac
2a0cb9fb5e510247b9f916c8d80f403e *09 Deal.flac
ebb9d0c33888b25367475ad7fd3705da *10 Tuning.flac
73d72c4a7692016a33af5bd40005138d *11 Feel Like A Stranger.flac
96805575d434e5312abf16c3e564af20 *12 Samson And Delilah.flac
4fee4ea763292190a41613909e87e1ba *13 Ship Of Fools.flac
8caa318c09cb57e44dd6e4c4b808b272 *14 Maybe You Know.flac
2de1e4d9b381f0d2b1465b7ac06c69bb *15 He's Gone.flac
8c817a32e83d387263db95fbab06e87e *16 Little Star.flac
8331edd837768ae2be17ca958f522a7b *17 Drums.flac
11321e87759219f272a64de88447aae9 *18 Space.flac
4ae3a9cc1f941bd3bf44da0de914ed44 *19 Throwing Stones.flac
a44fec4422827c0017000f9a3da320be *20 Not Fade Away.flac
895dec864be5e89bd42a092bc3aca6f7 *21 Goin' Down The Road Feeling Bad.flac
22586046190236b183b199464b9176a2 *22 Around And Around.flac
64fe0f516751c851522f1e6f7642c137 *23 Johnny B Goode.flac
0ad7c133dfe32f0d8e01458c7b32aa75 *24 It's All Over Now, Baby Blue.flac

Comments
Add Comment
Other Sources (comments)
Senn. 421?s > MC>DAT>CD;... (0) 2nd set; SBD>PCM>DAT>Sonic... (1) (FOB) Audio Technica Mics... (0) Recording Info: Set 1: SBD... (0) flac16; Recording... (0) flac24; Recording... (0) flac16;... (0) flac16;Recording... (0) flac24; Recording... (0) flac16; AUD:... (0) flac16; 2 source... (0) flac16; Set 2... (0) flac16; aud cassette... (0) flac24; aud cassette... (0) flac24; source:... (0) flac16/44.1 ... (0) flac24/48 ... (0) flac16/44.1 ... (0) flac24/48 ... (0)
Date User Comment