Browse Collections Artists Sources   Search Dates

Add Show    List Management    Help


Grateful Dead 09/08/83
Red Rocks Amphitheatre, Morrison, CO
Comments Add Comment    Source Collectors    Add to Collection    Add to Want List    History
Source # 143056 Other Sources
Entered by Matt Vernon
Checksums ffp , flac-md5
Disc Counts 0 / 0
Media Size
Date Circulated
Date Added

09/01/2018
Source Summary flac16/44.1 Master: AUD MC Beyer M201's X-Y 5.5'up > Sony TCD5M no dolby Maxell MX90 x 3 Location: 140 feet from stage, 10 ft. ROC (~10 rows behind SBD) Transfer: Nakamichi CR-5A (24/96) > Tascam DR680|SD > i7Windows7 Audacity > cdwav editor > TLH flac level 8 Mastered: Executive Crew Kyle Holbrook Chris Kidwell Tom Pinney Transferred: Kyle Holbrook 
  Archive
Source Information - Download Text | Download Zip
Grateful Dead
Date 1983-09-08
Red Rocks Amphitheatre
Morrison CO

Set 1
d1t01 - Intro
d1t02 - Shakedown Street      /
d1t03 - Mama Tried >
d1t04 - Big River             /
d1t05 - Ramble on Rose
d1t06 - Hell in a Bucket      /
d1t07 - Brown Eyed Women   //
d1t08 - Looks Like Rain >   #
d1t09 - Deal

Set 2
d2t01 - Scarlet Begonias > Fire on the Mountain
d2t02 - tuning
d2t03 - Estimated Prophet > //
d2t04 - Terrapin Station          *
d2t05 - drums               ///3
d2t06 - space >
d2t07 - Throwin' Stones >
d2t08 - Black Peter >
d2t09 - Around and Around >
d2t10 - Good Lovin'         ///1
d2t11 - encore Baby Blue    #

//    Tape flip
///3  Tape swap from tape 2 to 3
///1  Tape swap from tape 3 to 1
#     missed start
*     missed some music during swap

Master: AUD MC Beyer M201's X-Y 5.5'up > Sony TCD5M no dolby
        Maxell MX90 x 3
Location: 140 feet from stage, 10 ft. ROC (~10 rows behind SBD)
Transfer: Nakamichi CR-5A (24/96) > Tascam DR680|SD > i7Windows7
          Audacity > cdwav editor > TLH flac level 8
          This is 16 bit copy
Mastered: Executive Crew Kyle Holbrook Chris Kidwell Tom Pinney
Transferred: Kyle Holbrook
==================================================================================================================
The tour story:
Night 3 at the Rocks. This was a Thursday and after all the worry about rain outs there was almost no precipitation for these three shows: the weather had been more on the hot side these three days and nights with occasional mountain afternoon clouds indicating someone might be getting rain or hail. Due to getting all our traveling plans together because we would split paths the next day we arrived late this day and were unable to get anyone in line close enough to get the front locations as we did on nights 1 & 2. So we wound up behind the soundboard about 6-8 rows. This does provide a nice acoustic perspective as to how the Beyers were performing with this PA at locations which varied widely from the source (50 or 70 feet away as opposed to this 140 feet). I would say they seem different acoustically in terms of proximity but this recording has some very positive aspects to it which may not be on the two FOB recordings.

The Shakedown Street comes out smokin' with great Jerry guitar leads and some vocal rondo action during the "poke around" section. An unexpected Mama Tried > Big River at the top of the set highlighted more Jerry guitar sweetness. This Ramble On Rose was one of my favorite versions for a long time. The set 1 closing Looks Like Rain > Deal is sailing! I kept this as a car tape copy for years. They threw in an Estimated > Terrapin Station for the lead into drums   which added to the beauty of the evening. In my opinion this whole show is a gem from the performance point of view, really fine, relaxed versions of these songs.

I had to leave tour and go back to Syracuse for the start of school. Tom and Chris would go on with our newly reacquainted friend Sean. Tom and I had met Sean in June at Poplar Creek and we had not met back up until the end of this show. Sean had told us he tok a bus from Virginia and was at all 3 shows but could not locate us until after the encore of the third night. Luckily for him, Chris and Tom had an open seat in the Saab and Sean rode with them to the final three shows. This was one of the first instances where we sent equipment without the owner on tour (in this case, my D5 and Beyer microphones). So we packed all the gear up and sent it off with those guys headed to Santa Fe while we drove back to Syracuse. I took the tour tapes home with me so we could start copying them as soon as we got home. We had most of them copied and were subjectively rating them by the time Chris and Tom returned with the Santa Fe and Austin recordings.

- - - - sbe’s at end of sets

    length     expanded size    cdr  WAVE problems  fmt   ratio  filename
     1:00.38       10673420 B   ---   --   ---xx   flac  0.5182  gd1983-09-08beyerm201-16s1t01.flac
    12:42.70      134581484 B   ---   --   ---xx   flac  0.5615  gd1983-09-08beyerm201-16s1t02.flac
     2:46.24       29338892 B   ---   --   ---xx   flac  0.5864  gd1983-09-08beyerm201-16s1t03.flac
     6:21.74       67382492 B   ---   --   ---xx   flac  0.5926  gd1983-09-08beyerm201-16s1t04.flac
     7:51.50       83202044 B   ---   --   ---xx   flac  0.5969  gd1983-09-08beyerm201-16s1t05.flac
     5:45.27       60921548 B   ---   --   ---xx   flac  0.6245  gd1983-09-08beyerm201-16s1t06.flac
     5:01.02       53101148 B   ---   --   ---xx   flac  0.6074  gd1983-09-08beyerm201-16s1t07.flac
     7:24.06       78335756 B   ---   --   ---xx   flac  0.5863  gd1983-09-08beyerm201-16s1t08.flac
     8:48.13       93168880 B   -b-   --   ---xx   flac  0.6176  gd1983-09-08beyerm201-16s1t09.flac
    27:51.42      294863228 B   ---   --   ---xx   flac  0.6112  gd1983-09-08beyerm201-16s2t01.flac
     0:54.24        9582092 B   ---   --   ---xx   flac  0.5258  gd1983-09-08beyerm201-16s2t02.flac
    11:27.56      121318556 B   ---   --   ---xx   flac  0.6004  gd1983-09-08beyerm201-16s2t03.flac
    11:50.12      125272268 B   ---   --   ---xx   flac  0.5870  gd1983-09-08beyerm201-16s2t04.flac
     8:13.37       87052268 B   ---   --   ---xx   flac  0.5475  gd1983-09-08beyerm201-16s2t05.flac
    15:54.28      168351500 B   ---   --   ---xx   flac  0.5212  gd1983-09-08beyerm201-16s2t06.flac
     8:30.21       90013436 B   ---   --   ---xx   flac  0.5859  gd1983-09-08beyerm201-16s2t07.flac
     8:59.09       95100812 B   ---   --   ---xx   flac  0.5744  gd1983-09-08beyerm201-16s2t08.flac
     3:43.10       39360764 B   ---   --   ---xx   flac  0.6156  gd1983-09-08beyerm201-16s2t09.flac
     8:18.07       87863708 B   ---   --   ---xx   flac  0.6287  gd1983-09-08beyerm201-16s2t10.flac
     7:03.62       74763528 B   -b-   --   ---xx   flac  0.5783  gd1983-09-08beyerm201-16s2t11.flac
   170:28.12     1804247824 B                            0.5868  (20 files)




Show Checksums
ffp
gd1983-09-08beyerm201-16s1t01.flac:b39c78c834b0ae1ccd3f8ac85f76f59a
gd1983-09-08beyerm201-16s1t02.flac:951940bd93b1db7b26fa4b38e7e52730
gd1983-09-08beyerm201-16s1t03.flac:dc4ad00baa25aa2349831f103db00ce0
gd1983-09-08beyerm201-16s1t04.flac:9dd61089d44035bfe3ce324531642449
gd1983-09-08beyerm201-16s1t05.flac:9643cdbd94b5c2c02f1d3ba75e23046c
gd1983-09-08beyerm201-16s1t06.flac:bb7f78d8654810ed523189b8fa8934e9
gd1983-09-08beyerm201-16s1t07.flac:7230650339af8a5dbcab108ea039188a
gd1983-09-08beyerm201-16s1t08.flac:95323fdb4690dd5b72df3efdd26c99ca
gd1983-09-08beyerm201-16s1t09.flac:76d3061ede47e5129e552681a29734e2
gd1983-09-08beyerm201-16s2t01.flac:2682fd6f40c463928ec95461ee63271a
gd1983-09-08beyerm201-16s2t02.flac:f39e6df9b30ec04840f53bd0b49b6d59
gd1983-09-08beyerm201-16s2t03.flac:8fe895f0bab3974df73faaf01d05a8f5
gd1983-09-08beyerm201-16s2t04.flac:effe4bcb598207f7b3020e092a5cef22
gd1983-09-08beyerm201-16s2t05.flac:41a556dbaaf4299c4e588c35dd72e02c
gd1983-09-08beyerm201-16s2t06.flac:1e2e7ba9ccd74b0fc0b14c2c34f106c6
gd1983-09-08beyerm201-16s2t07.flac:35e87dc455814bdb042df63f5b9b19d6
gd1983-09-08beyerm201-16s2t08.flac:1cec9e2ff94dcb512bc7c65ebb5f2d95
gd1983-09-08beyerm201-16s2t09.flac:4f6ca9200338fe398693cff169d30bf0
gd1983-09-08beyerm201-16s2t10.flac:6f1df8d46b5b9a301d161beeec2abbf2
gd1983-09-08beyerm201-16s2t11.flac:d0d071e0f31f54c3959a29b18c5bdef3
flac-md5
3180c7bdfe1cf6883118099cdbb4b01c *gd1983-09-08beyerm201-16s1t01.flac
0663b9e8c6e22c0c7fd5108c0720f051 *gd1983-09-08beyerm201-16s1t02.flac
706829bf10cdbed26facae9548f22eee *gd1983-09-08beyerm201-16s1t03.flac
543ee3eb816a43622d0628da6598144e *gd1983-09-08beyerm201-16s1t04.flac
bee3fde4e2b41b112d18b55f809fdf0a *gd1983-09-08beyerm201-16s1t05.flac
57f1411e995f7a26cc4fa3ac3d966c8e *gd1983-09-08beyerm201-16s1t06.flac
272fabe45c1c0823f5e3eefea826c8f1 *gd1983-09-08beyerm201-16s1t07.flac
d720d44c5e9a338d886cc829898acf92 *gd1983-09-08beyerm201-16s1t08.flac
aa16345d635b4a93804b0bd5555b0f3b *gd1983-09-08beyerm201-16s1t09.flac
3612ce62398a34b33896711b3f5433f3 *gd1983-09-08beyerm201-16s2t01.flac
38d7706b82fe396a44ec620790ac64cb *gd1983-09-08beyerm201-16s2t02.flac
50d35dbd55e44d96827dcec2278a8cd9 *gd1983-09-08beyerm201-16s2t03.flac
47a43c8d2ec0e6113b84424f33da3be8 *gd1983-09-08beyerm201-16s2t04.flac
9858349299aa8cfc64cdec2b9a02c605 *gd1983-09-08beyerm201-16s2t05.flac
d1e0bb190bd8f546f02f002e93aebc07 *gd1983-09-08beyerm201-16s2t06.flac
5c18ea3c7ba3b1ca568c368a1c1253dd *gd1983-09-08beyerm201-16s2t07.flac
3adf643cf7c74caa9bc7ff06ed9cc496 *gd1983-09-08beyerm201-16s2t08.flac
ebe00ca898105b62eaca6dfe14411367 *gd1983-09-08beyerm201-16s2t09.flac
8b59249373a342bf6244ff20e5067613 *gd1983-09-08beyerm201-16s2t10.flac
5456bdda73e4c064b7a16226ac48069e *gd1983-09-08beyerm201-16s2t11.flac

Comments
Add Comment
Other Sources (comments)
AUD (Senn. 441's)> MC> DAT>... (1) Lineage: MSC>Reel>DAT>CDR... (2) flac16; Source:... (0) flac16; SOURCES: Set... (0) flac16; Nakamichi... (0) flac24; Nakamichi... (0) flac16; source: 2... (0) flac16; Recording... (0) flac24/48 Master:... (0)
Date User Comment