Browse Collections Artists Sources   Search Dates

Add Show    List Management    Help


Grateful Dead 09/08/83
Red Rocks Amphitheatre, Morrison, CO
Comments Add Comment    Source Collectors    Add to Collection    Add to Want List    History
Source # 143057 Other Sources
Entered by Matt Vernon
Checksums ffp , flac-md5
Disc Counts 0 / 0
Media Size
Date Circulated
Date Added

09/01/2018
Source Summary flac24/48 Master: AUD MC Beyer M201's X-Y 5.5'up > Sony TCD5M no dolby Maxell MX90 x 3 Location: 140 feet from stage, 10 ft. ROC (~10 rows behind SBD) Transfer: Nakamichi CR-5A (24/96) > Tascam DR680|SD > i7Windows7 Audacity > cdwav editor > TLH flac level 8 Mastered: Executive Crew Kyle Holbrook Chris Kidwell Tom Pinney Transferred: Kyle Holbrook 
  Archive
Source Information - Download Text | Download Zip
Grateful Dead
Date 1983-09-08
Red Rocks Amphitheatre
Morrison CO

Set 1
d1t01 - Intro
d1t02 - Shakedown Street      /
d1t03 - Mama Tried >
d1t04 - Big River             /
d1t05 - Ramble on Rose
d1t06 - Hell in a Bucket      /
d1t07 - Brown Eyed Women   //
d1t08 - Looks Like Rain >   #
d1t09 - Deal

Set 2
d2t01 - Scarlet Begonias > Fire on the Mountain
d2t02 - tuning
d2t03 - Estimated Prophet > //
d2t04 - Terrapin Station          *
d2t05 - drums               ///3
d2t06 - space >
d2t07 - Throwin' Stones >
d2t08 - Black Peter >
d2t09 - Around and Around >
d2t10 - Good Lovin'         ///1
d2t11 - encore Baby Blue    #

//    Tape flip
///3  Tape swap from tape 2 to 3
///1  Tape swap from tape 3 to 1
#     missed start
*     missed some music during swap

Master: AUD MC Beyer M201's X-Y 5.5'up > Sony TCD5M no dolby
        Maxell MX90 x 3
Location: 140 feet from stage, 10 ft. ROC (~10 rows behind SBD)
Transfer: Nakamichi CR-5A (24/96) > Tascam DR680|SD > i7Windows7
          Audacity > cdwav editor > TLH flac level 8
          This is 24 bit copy
Mastered: Executive Crew Kyle Holbrook Chris Kidwell Tom Pinney
Transferred: Kyle Holbrook
==================================================================================================================
The tour story:
Night 3 at the Rocks. This was a Thursday and after all the worry about rain outs there was almost no precipitation for these three shows: the weather had been more on the hot side these three days and nights with occasional mountain afternoon clouds indicating someone might be getting rain or hail. Due to getting all our traveling plans together because we would split paths the next day we arrived late this day and were unable to get anyone in line close enough to get the front locations as we did on nights 1 & 2. So we wound up behind the soundboard about 6-8 rows. This does provide a nice acoustic perspective as to how the Beyers were performing with this PA at locations which varied widely from the source (50 or 70 feet away as opposed to this 140 feet). I would say they seem different acoustically in terms of proximity but this recording has some very positive aspects to it which may not be on the two FOB recordings.

The Shakedown Street comes out smokin' with great Jerry guitar leads and some vocal rondo action during the "poke around" section. An unexpected Mama Tried > Big River at the top of the set highlighted more Jerry guitar sweetness. This Ramble On Rose was one of my favorite versions for a long time. The set 1 closing Looks Like Rain > Deal is sailing! I kept this as a car tape copy for years. They threw in an Estimated > Terrapin Station for the lead into drums   which added to the beauty of the evening. In my opinion this whole show is a gem from the performance point of view, really fine, relaxed versions of these songs.

I had to leave tour and go back to Syracuse for the start of school. Tom and Chris would go on with our newly reacquainted friend Sean. Tom and I had met Sean in June at Poplar Creek and we had not met back up until the end of this show. Sean had told us he tok a bus from Virginia and was at all 3 shows but could not locate us until after the encore of the third night. Luckily for him, Chris and Tom had an open seat in the Saab and Sean rode with them to the final three shows. This was one of the first instances where we sent equipment without the owner on tour (in this case, my D5 and Beyer microphones). So we packed all the gear up and sent it off with those guys headed to Santa Fe while we drove back to Syracuse. I took the tour tapes home with me so we could start copying them as soon as we got home. We had most of them copied and were subjectively rating them by the time Chris and Tom returned with the Santa Fe and Austin recordings.

- - - -

    length     expanded size    cdr  WAVE problems  fmt   ratio  filename
     1:00.507      17425964 B   cxx   --   ---xx   flac  0.6794  gd1983-09-08beyerm201-24s1t01.flac
    12:42.933     219724844 B   cxx   --   ---xx   flac  0.7059  gd1983-09-08beyerm201-24s1t02.flac
     2:46.320      47900204 B   cxx   --   ---xx   flac  0.7213  gd1983-09-08beyerm201-24s1t03.flac
     6:21.987     110012204 B   cxx   --   ---xx   flac  0.7252  gd1983-09-08beyerm201-24s1t04.flac
     7:51.667     135840044 B   cxx   --   ---xx   flac  0.7278  gd1983-09-08beyerm201-24s1t05.flac
     5:45.360      99463724 B   cxx   --   ---xx   flac  0.7448  gd1983-09-08beyerm201-24s1t06.flac
     5:01.027      86695724 B   cxx   --   ---xx   flac  0.7343  gd1983-09-08beyerm201-24s1t07.flac
     7:24.080     127895084 B   cxx   --   ---xx   flac  0.7213  gd1983-09-08beyerm201-24s1t08.flac
     8:48.168     152112428 B   cxx   --   ---xx   flac  0.7404  gd1983-09-08beyerm201-24s1t09.flac
    27:51.560     481409324 B   cxx   --   ---xx   flac  0.7369  gd1983-09-08beyerm201-24s2t01.flac
     0:54.320      15644204 B   cxx   --   ---xx   flac  0.6845  gd1983-09-08beyerm201-24s2t02.flac
    11:27.747     198071084 B   cxx   --   ---xx   flac  0.7304  gd1983-09-08beyerm201-24s2t03.flac
    11:50.160     204526124 B   cxx   --   ---xx   flac  0.7218  gd1983-09-08beyerm201-24s2t04.flac
     8:13.493     142126124 B   cxx   --   ---xx   flac  0.6975  gd1983-09-08beyerm201-24s2t05.flac
    15:54.373     274859564 B   cxx   --   ---xx   flac  0.6815  gd1983-09-08beyerm201-24s2t06.flac
     8:30.280     146960684 B   cxx   --   ---xx   flac  0.7213  gd1983-09-08beyerm201-24s2t07.flac
     8:59.120     155266604 B   cxx   --   ---xx   flac  0.7142  gd1983-09-08beyerm201-24s2t08.flac
     3:43.133      64262444 B   cxx   --   ---xx   flac  0.7396  gd1983-09-08beyerm201-24s2t09.flac
     8:18.093     143450924 B   cxx   --   ---xx   flac  0.7475  gd1983-09-08beyerm201-24s2t10.flac
     7:03.829     122062874 B   cxx   --   ---xx   flac  0.7168  gd1983-09-08beyerm201-24s2t11.flac
   170:28.157    2945710174 B                            0.7218  (20 files)




Show Checksums
ffp
gd1983-09-08beyerm201-24s1t01.flac:d851f88b5de7b525991a0c07d1d41214
gd1983-09-08beyerm201-24s1t02.flac:27cd372c78d74f88ff7cbc9cd5d0e798
gd1983-09-08beyerm201-24s1t03.flac:2c8a8087a19796b0f378fa72e6f1063e
gd1983-09-08beyerm201-24s1t04.flac:b803e9aec2c7b037be626cf080988f5a
gd1983-09-08beyerm201-24s1t05.flac:2ed0df1f25165923bfde88244fcffadb
gd1983-09-08beyerm201-24s1t06.flac:0f8845b7981b2ffcfde19a502eb53e2d
gd1983-09-08beyerm201-24s1t07.flac:b62a3adafc5b36f3cfcbc7b79fc94e1e
gd1983-09-08beyerm201-24s1t08.flac:c08b4358ae999c016435ac904b18c872
gd1983-09-08beyerm201-24s1t09.flac:34d1821669b89892667e7d7ca5b2a606
gd1983-09-08beyerm201-24s2t01.flac:febb60b34f2fd0ec5f4e3295de780895
gd1983-09-08beyerm201-24s2t02.flac:62806d0a1da15d30d72284fdb15dbb2b
gd1983-09-08beyerm201-24s2t03.flac:10b9a1976544f44e06417530f0de6ac2
gd1983-09-08beyerm201-24s2t04.flac:987ed1179111eee231e0affdcc85274d
gd1983-09-08beyerm201-24s2t05.flac:f7e7ff8bdc0d31f1171beb309a652f4a
gd1983-09-08beyerm201-24s2t06.flac:b5672add1fde628a47668109ed4b204b
gd1983-09-08beyerm201-24s2t07.flac:e5f07b223a0caa7b034e3c4938094c94
gd1983-09-08beyerm201-24s2t08.flac:21931a18a66228f69b53a2f21971f7c1
gd1983-09-08beyerm201-24s2t09.flac:f9eccba7807cdb87eeab2be85ef24f6b
gd1983-09-08beyerm201-24s2t10.flac:0687c2119277629f0e370995c4191bef
gd1983-09-08beyerm201-24s2t11.flac:ff2a35124f739b644c87049e4ab0845d
flac-md5
c6787ee8d7fec16903652ac7ec329bb7 *gd1983-09-08beyerm201-24s1t01.flac
8b60ad94871c87e28c140db9de4b3b5b *gd1983-09-08beyerm201-24s1t02.flac
cb5a4e2d5d45af124ab0cbb1e0823ed2 *gd1983-09-08beyerm201-24s1t03.flac
13471021fbd214154b882e51837e05eb *gd1983-09-08beyerm201-24s1t04.flac
19d0684501430671dcfd1cedb1aeecae *gd1983-09-08beyerm201-24s1t05.flac
84d378cbe984ff551d8e629c6cc26a34 *gd1983-09-08beyerm201-24s1t06.flac
b39394c5a6446c11aeeac85935ac8428 *gd1983-09-08beyerm201-24s1t07.flac
91c31fd7698f9e4faf74e0ddb2bd4847 *gd1983-09-08beyerm201-24s1t08.flac
3eab67fc640bd00495db8adaae95ad43 *gd1983-09-08beyerm201-24s1t09.flac
4dc542ef0b5ff02ccf0a350f49d5ff6b *gd1983-09-08beyerm201-24s2t01.flac
f6036a1421c0b2d2a56fb319b28300a1 *gd1983-09-08beyerm201-24s2t02.flac
96b7c8ebe5c150a33dd0ecaa233e94ee *gd1983-09-08beyerm201-24s2t03.flac
d6c57dc594aa75978793e9282550d6a2 *gd1983-09-08beyerm201-24s2t04.flac
573057aa05cefb77c10b4da1351b5ff9 *gd1983-09-08beyerm201-24s2t05.flac
fc62e115f8465311318ae76ca766954a *gd1983-09-08beyerm201-24s2t06.flac
8336992a27f73a19127a16d11e6fa2b1 *gd1983-09-08beyerm201-24s2t07.flac
d886931535268f9c7506ca52cc1721b2 *gd1983-09-08beyerm201-24s2t08.flac
b7e663525880d0d4ada34580dea94454 *gd1983-09-08beyerm201-24s2t09.flac
2da9e69fc2518ba550f4642e98639cfc *gd1983-09-08beyerm201-24s2t10.flac
d71e95a2a113019a4f4583101e0682bf *gd1983-09-08beyerm201-24s2t11.flac

Comments
Add Comment
Other Sources (comments)
AUD (Senn. 441's)> MC> DAT>... (1) Lineage: MSC>Reel>DAT>CDR... (2) flac16; Source:... (0) flac16; SOURCES: Set... (0) flac16; Nakamichi... (0) flac24; Nakamichi... (0) flac16; source: 2... (0) flac16; Recording... (0) flac16/44.1 ... (0)
Date User Comment