Browse Collections Artists Sources   Search Dates

Add Show    List Management    Help


Grateful Dead 10/12/81
Olympia Halle, Munich, Germany
Comments Add Comment    Source Collectors    Add to Collection    Add to Want List    History
Source # 143063 Other Sources
Entered by Matt Vernon
Checksums ffp , flac-md5
Disc Counts 0 / 0
Media Size Compressed: 2.09 GB (2241703936 bytes)
Date Circulated
Date Added
09/03/2018
09/03/2018
Source Summary flac16/48kHz; Master Soundboard Cassettes > Dick Latvala's 1st generation cassettes (Tascam 122mkIII)> Rob Eaton's 2nd generation cassettes (Nakamichi Dragon) > Rob Eaton's Dat (Panasonic SV-3800)(16-bit/48k) > Tim Dalton's Dat (16-bit/48k) Transfer Info: Dat (Sony PCM-R500)(16-bit/48k)> Apogee aes/ebu cable > Tascam DA-3000 (.wav 16-bit/48k) > Adobe Audition 3.01 > TLH flac1648 
  Archive
Source Information - Download Text | Download Zip
Grateful Dead
Olympia Halle
Munich, West Germany
Monday  October 12th, 1981

Source Info:
Master Soundboard Cassettes > Dick Latvala's 1st generation cassettes (Tascam 122mkIII)> Rob Eaton's 2nd generation cassettes (Nakamichi Dragon) > Rob Eaton's Dat (Panasonic SV-3800)(16-bit/48k) > Tim Dalton's Dat (16-bit/48k)

Transfer Info:
Dat (Sony PCM-R500)(16-bit/48k)> Apogee aes/ebu cable > Tascam DA-3000 (.wav 16-bit/48k) > Adobe Audition 3.01 > TLH flac1648

Notes:
- Thanks to Tim Dalton for Dat source
- Thanks to Charlie Miller for the transfer and coordinating this effort
- Thanks to Uwe Dehnel and Bernd Weiskircher for the shnid32146 audience source which supplies the crowd and beginning of "Cumberland Blues" (0:08 total), the crowd and beginning of "Bertha" (0:11 total), as well as the "US Blues" encore in its entirety
- Thanks to Charlie Miller for the shnid139555 soundboard source which supplies a 2:10 patch in "Drums"
- Pitch corrected
- No digital noise reduction

Mastered by Scott Clugston
August 2018

Set One:
s1t01 - Jack Straw
s1t02 - Candyman >
s1t03 - Little Red Rooster
s1t04 - Cumberland Blues
s1t05 - Beat It On Down The Line
s1t06 - Ramble On Rose
s1t07 - Mama Tried >
s1t08 - Mexicali Blues
s1t09 - Althea
s1t10 - Passenger
s1t11 - China Cat Sunflower >
s1t12 - I Know You Rider

Set Two:
s2t01 - Bertha >
s2t02 - Samson & Delilah
s2t03 - Ship Of Fools
s2t04 - Estimated Prophet >
s2t05 - Goin' Down The Road Feeling Bad >
s2t06 - Never Trust A Woman >
s2t07 - Drums >
s2t08 - Space >
s2t09 - Not Fade Away >
s2t10 - Stella Blue >
s2t11 - Around & Around >
s2t12 - Good Lovin'
Encore:
s2t13 - US Blues

    length     expanded size    cdr  WAVE problems  fmt   ratio  filename
     6:04.640      70010924 B   cxx   --   ---xx   flac  0.5761  gd81-10-12 s1t01 Jack Straw.flac
     6:29.867      74854444 B   cxx   --   ---xx   flac  0.5776  gd81-10-12 s1t02 Candyman.flac
     8:22.400      96460844 B   cxx   --   ---xx   flac  0.5747  gd81-10-12 s1t03 Little Red Rooster.flac
     5:32.827      63902764 B   cxx   --   ---xx   flac  0.5725  gd81-10-12 s1t04 Cumberland Blues.flac
     3:09.813      36444204 B   cxx   --   ---xx   flac  0.5640  gd81-10-12 s1t05 Beat It On Down The Line.flac
     8:14.840      95009324 B   cxx   --   ---xx   flac  0.5374  gd81-10-12 s1t06 Ramble On Rose.flac
     2:32.467      29273644 B   cxx   --   ---xx   flac  0.5534  gd81-10-12 s1t07 Mama Tried.flac
     3:41.880      42601004 B   cxx   --   ---xx   flac  0.5649  gd81-10-12 s1t08 Mexicali Blues.flac
     9:41.360     111621164 B   cxx   --   ---xx   flac  0.5733  gd81-10-12 s1t09 Althea.flac
     5:36.267      64563244 B   cxx   --   ---xx   flac  0.5944  gd81-10-12 s1t10 Passenger.flac
     6:46.867      78118444 B   cxx   --   ---xx   flac  0.5945  gd81-10-12 s1t11 China Cat Sunflower.flac
     7:02.480      81116204 B   cxx   --   ---xx   flac  0.5792  gd81-10-12 s1t12 I Know You Rider.flac
     7:02.787      81175084 B   cxx   --   ---xx   flac  0.5621  gd81-10-12 s2t01 Bertha.flac
     7:22.707      84999724 B   cxx   --   ---xx   flac  0.5789  gd81-10-12 s2t02 Samson & Delilah.flac
     8:39.747      99791404 B   cxx   --   ---xx   flac  0.5418  gd81-10-12 s2t03 Ship Of Fools.flac
    15:51.480     182684204 B   cxx   --   ---xx   flac  0.5583  gd81-10-12 s2t04 Estimated Prophet.flac
     8:27.853      97507884 B   cxx   --   ---xx   flac  0.5606  gd81-10-12 s2t05 Goin' Down The Road Feeling Bad.flac
     9:10.133     105625644 B   cxx   --   ---xx   flac  0.5297  gd81-10-12 s2t06 Never Trust A Woman.flac
     8:47.040     101191724 B   cxx   --   ---xx   flac  0.5170  gd81-10-12 s2t07 Drums.flac
     4:58.867      57382444 B   cxx   --   ---xx   flac  0.4638  gd81-10-12 s2t08 Space.flac
    12:09.347     140034604 B   cxx   --   ---xx   flac  0.5165  gd81-10-12 s2t09 Not Fade Away.flac
    11:32.440     132948524 B   cxx   --   ---xx   flac  0.4885  gd81-10-12 s2t10 Stella Blue.flac
     3:43.600      42931244 B   cxx   --   ---xx   flac  0.5303  gd81-10-12 s2t11 Around & Around.flac
     8:59.333     103552044 B   cxx   --   ---xx   flac  0.5377  gd81-10-12 s2t12 Good Lovin'.flac
     5:12.969      60090092 B   cxx   --   ---xx   flac  0.5744  gd81-10-12 s2t13 US Blues.flac
   185:14.009    2133890828 B                            0.5501  (25 files)


Show Checksums
ffp
gd81-10-12 s1t01 Jack Straw.flac:cc678e150cd6af20eed4fb3cf8e81fd0
gd81-10-12 s1t02 Candyman.flac:158df73e144e2fe5c96a036c836a103b
gd81-10-12 s1t03 Little Red Rooster.flac:332a9fd641dd0ad2fc3d5b84e77b649a
gd81-10-12 s1t04 Cumberland Blues.flac:efbd7a78d22c754e8c87b4f89c38dcca
gd81-10-12 s1t05 Beat It On Down The Line.flac:879b718cd45ffde6a530fa2f8da5df8a
gd81-10-12 s1t06 Ramble On Rose.flac:5e1c4912ca19b84c8c6e3a8be0b9944a
gd81-10-12 s1t07 Mama Tried.flac:0e68b431550e97c155ddbe2ba81baeaf
gd81-10-12 s1t08 Mexicali Blues.flac:930945d6ad83cfac238be0af71555914
gd81-10-12 s1t09 Althea.flac:d7d467bd28494e315224c0019b5e2471
gd81-10-12 s1t10 Passenger.flac:e50131b307252ac16780014cafc3536d
gd81-10-12 s1t11 China Cat Sunflower.flac:b4d88d0707f5e6aad7cec715ef4bb3a0
gd81-10-12 s1t12 I Know You Rider.flac:83dd7bf703245b4d43e70ce950424b4d
gd81-10-12 s2t01 Bertha.flac:e173d86394aeecbf1108b7d016d142c2
gd81-10-12 s2t02 Samson & Delilah.flac:c4d01d976109206812715ad5dc98eeda
gd81-10-12 s2t03 Ship Of Fools.flac:6e0e8d8ca9d346522f6278eadcf5ae25
gd81-10-12 s2t04 Estimated Prophet.flac:ecb8f9c32eca7f55292847e751a316dc
gd81-10-12 s2t05 Goin' Down The Road Feeling Bad.flac:01b40211a51d969921abac5e618be766
gd81-10-12 s2t06 Never Trust A Woman.flac:cebf331ac73fb2b43f09a0cd16c27eb8
gd81-10-12 s2t07 Drums.flac:6fe7a4af45e64b1699beef8faa647efc
gd81-10-12 s2t08 Space.flac:5b6ac38ce45a64bf8ceebca787ada65c
gd81-10-12 s2t09 Not Fade Away.flac:4bed4e334cfb28b4aa7b2ea303cdaa36
gd81-10-12 s2t10 Stella Blue.flac:540aa62f9454d043fbc57e07b5414d59
gd81-10-12 s2t11 Around & Around.flac:69f359eccba2d6dd126262cee3c6e6d6
gd81-10-12 s2t12 Good Lovin'.flac:7446137f89964855ffb02ad453d5a407
gd81-10-12 s2t13 US Blues.flac:c7297cb735dc9e4d8edb0bd914e11f49
flac-md5
0bae0102b769ae8466cb9930762193e2 *gd81-10-12 s1t01 Jack Straw.flac
da2d6168c7f6d2c04cb3816593bfc4f3 *gd81-10-12 s1t02 Candyman.flac
246889f972e3f0167a2888dbe89af184 *gd81-10-12 s1t03 Little Red Rooster.flac
66d5b0852dde172a849724eaa01ccb0a *gd81-10-12 s1t04 Cumberland Blues.flac
8cdb3e42f65249561daaf0ed7ec5d205 *gd81-10-12 s1t05 Beat It On Down The Line.flac
496d1eca5401578b746b22493d136e78 *gd81-10-12 s1t06 Ramble On Rose.flac
b021d154b4bd22a4b27dce3437e05577 *gd81-10-12 s1t07 Mama Tried.flac
35a5cee8ebc739714e62a1e67d1273b3 *gd81-10-12 s1t08 Mexicali Blues.flac
dc8e3a0aa0594bf34573ad46c40ad390 *gd81-10-12 s1t09 Althea.flac
a30f202b778bc647983946f6427eee48 *gd81-10-12 s1t10 Passenger.flac
cb4199b62c8f99b6c2494a219434608d *gd81-10-12 s1t11 China Cat Sunflower.flac
7cc0678932d2dd28c115a72878d9fae1 *gd81-10-12 s1t12 I Know You Rider.flac
e2e5a23174b03c29bf413333b3f39c02 *gd81-10-12 s2t01 Bertha.flac
64c0b99e9e1231447097c1ae4828a0e6 *gd81-10-12 s2t02 Samson & Delilah.flac
a676407d3350a6f5f16bca7fb5d8f9be *gd81-10-12 s2t03 Ship Of Fools.flac
fa02c1fb9e931df6dcf154ac67e546e2 *gd81-10-12 s2t04 Estimated Prophet.flac
ea1ac698f1916e29499b1ddb1138d3cf *gd81-10-12 s2t05 Goin' Down The Road Feeling Bad.flac
6319899bdbd3a07b5f7f5c4c825e3e77 *gd81-10-12 s2t06 Never Trust A Woman.flac
5b0314638383a09b2d63bb1bd5c34f4a *gd81-10-12 s2t07 Drums.flac
b572c94f95bd80cb5a627a5dc49a7762 *gd81-10-12 s2t08 Space.flac
37202a8f6d241831784388a69f4298bd *gd81-10-12 s2t09 Not Fade Away.flac
84720f6eab19ea2a5f2c9a3b064d158b *gd81-10-12 s2t10 Stella Blue.flac
225be9dec66b86d8fa6ccbfb725570c8 *gd81-10-12 s2t11 Around & Around.flac
f4be39b8b1c532ba0fd9c75b3e3a4629 *gd81-10-12 s2t12 Good Lovin'.flac
942669772ca992b7dd8c8779fcfd12f6 *gd81-10-12 s2t13 US Blues.flac

Comments
Add Comment
Other Sources (comments)
sbd > mc > dat > cd > eac >... (1) SBD: MC > CASS > DAT > CDR;... (0) Recording by Uwe Dehnel.... (0) flac16; Recording... (1) flac16; Recording... (0)
Date User Comment
09/03/2018 mvernon md5, ffp and shntool report updated by request from Scott