Browse Collections Artists Sources   Search Dates

Add Show    List Management    Help


Grateful Dead 04/16/83
Meadowlands Arena, East Rutherford, NJ
Comments Add Comment    Source Collectors    Add to Collection    Add to Want List    History
Source # 143070 Other Sources
Entered by Matt Vernon
Checksums ffp , flac-md5
Disc Counts 0 / 0
Media Size
Date Circulated
Date Added
09/02/2018
09/03/2018
Source Summary flac24; Set 2 Recording Info: (FOB) Beyer M160 > Cassette Master (Sony WM-D6C/Maxell UDXL-II/Dolby B); Transfer Info: Cassette Master (Nakamichi CR-7A) > Tascam DA-3000 (DSF 1-bit/5.6 MHz) > dBpoweramp > Adobe Audition CC2015 > Samplitude Pro X3 Suite > FLAC/24; Recorded, Transferred and Mastered by Charlie Miller 
  Archive
Source Information - Download Text | Download Zip
Grateful Dead - April 16, 1983
Brendan Byrne Arena - East Rutherford, NJ

Recording Info:
(FOB) Beyer M160 > Cassette Master (Sony WM-D6C/Maxell UDXL-II/Dolby B)

Transfer Info:
Cassette Master (Nakamichi CR-7A) > Tascam DA-3000 (DSF 1-bit/5.6 MHz) >
dBpoweramp > Adobe Audition CC2015 > Samplitude Pro X3 Suite > FLAC/24
(1 DVD FLAC)

Patch Info:
(FOB) Seenheiser 421 > Cassette Master > Cassette > FLAC (shnid=125924) supplies:
Drums (6:57 - 7:20)
One More Saturday Night (1:47 - 1:53) (2:01 - 2:05)

(FOB) Nakamichi CM300/CP4 > Cassette Master > Cassette supplies:
Black Peter (0:05 - end of track)
One More Saturday Night (complete track except patches listed above)

Recorded, Transferred and Mastered by Charlie Miller
[email protected]
September 3, 2018

Notes:
-- This is an upgrade to all previous transfers
-- Black Queen, Iko Iko, Black Peter and One More Saturday Night with Stephen Stills
-- Recorded 5 feet in front of sbd 10 feet to the left patched out of a bunch of D5's
-- I lost my first set tape which also has the encore
-- My batteries died during Black Peter so I patched the last 2 songs after the show
-- Thanks to Joe B. Jones for the pitch correction settings

Set 2:
01 - Tuning
02 - China Cat Sunflower >
03 - I Know You Rider
04 - Uncle John's Band >
05 - Truckin' >
06 - Drums >
07 - Space >
08 - Black Queen >
09 - Iko Iko >
10 - Bob Star >
11 - The Other One >
12 - Black Peter >
13 - One More Saturday Night


SHNTOOL OUTPUT:
    length     expanded size    cdr  WAVE problems  fmt   ratio  filename
     1:09.548      40059878 B   cxx   --   ---xx   flac  0.6720  01 Tuning.flac
     7:04.589     244563128 B   cxx   --   ---xx   flac  0.7047  02 China Cat Sunflower.flac
     6:09.321     212728694 B   cxx   --   ---xx   flac  0.7076  03 I Know You Rider.flac
    10:21.146     357779996 B   cxx   --   ---xx   flac  0.7059  04 Uncle John's Band.flac
    12:13.638     422575334 B   cxx   --   ---xx   flac  0.7001  05 Truckin'.flac
     7:21.606     254364944 B   cxx   --   ---xx   flac  0.6639  06 Drums.flac
     0:44.081      25390910 B   cxx   --   ---xx   flac  0.6754  07 Space.flac
     7:31.967     260332862 B   cxx   --   ---xx   flac  0.7104  08 Black Queen.flac
     7:10.626     248040476 B   cxx   --   ---xx   flac  0.7094  09 Iko Iko.flac
     1:33.738      53993306 B   cxx   --   ---xx   flac  0.7096  10 Little Star.flac
     6:30.934     225178184 B   cxx   --   ---xx   flac  0.7095  11 The Other One.flac
     8:19.236     287560202 B   cxx   --   ---xx   flac  0.7061  12 Black Peter.flac
     4:30.637     155887004 B   cxx   --   ---xx   flac  0.7201  13 One More Saturday Night.flac
    80:41.067    2788454918 B                            0.7024  (13 files)


Show Checksums
ffp
01 Tuning.flac:b031a4b5160744ee26156e77e72c41c0
02 China Cat Sunflower.flac:4774d031af6012fba6492722bc9d876a
03 I Know You Rider.flac:7daa471b5467fd0988e6df2cd5c8a3e7
04 Uncle John's Band.flac:ac23cf2d5d5a62cd6713446b59da168c
05 Truckin'.flac:4e0a9a3c9f622f8de624bc41f03414e1
06 Drums.flac:ecb010632bf1cdd799ac0bebe915bf27
07 Space.flac:e5d7717a0de625c0cbbf5cd2665cb5ff
08 Black Queen.flac:2014f77743e2cb479ad57c4980522590
09 Iko Iko.flac:877993201df4bfff3eb1cdd37da03bb3
10 Little Star.flac:f2f4ecc1a9a176a63bf4ef9f8ebfa236
11 The Other One.flac:a0eeed56102bb35d49af09916ff07dc1
12 Black Peter.flac:1c932172f8a55ccb9a41c1bfc3438928
13 One More Saturday Night.flac:f8ea9c580edd4c5602a055d407792777
flac-md5
5325449890ca238d465739e6e625bdd6 *01 Tuning.flac
c2db74aafcddb5d2316e4cdfd9f53c85 *02 China Cat Sunflower.flac
38a6bcc0b809442615e9d354d4b9656f *03 I Know You Rider.flac
ccaeecb54dd8199c2a01502c69ec99d9 *04 Uncle John's Band.flac
5cb5e52dc5d0a83b2479c06d55efbf3c *05 Truckin'.flac
0530f897e9c958ee6185a98470142774 *06 Drums.flac
4dbed8d6c9b8211c5e4b468ce2b1ad57 *07 Space.flac
5b4890f841f963294426489c075b0ff8 *08 Black Queen.flac
7cf9bbca416a74438404489fa115c8a0 *09 Iko Iko.flac
76fa0635024f84870919db40e06ad347 *10 Little Star.flac
d7d9d862d2d037a2f8c15561e6e48bcd *11 The Other One.flac
7a6a9d46de3b2ab6062c3825e62158da *12 Black Peter.flac
3b98faa0b631d06150369b0ca492d39d *13 One More Saturday Night.flac

Comments
Add Comment
Other Sources (comments)
AudMC > DAT > CDWAV > SHN;... (0) S : MC > DAT > CDR > EAC >... (6) (FOB) Beyer M160 -> Sony D5... (1) flac16; mixed... (0) Set 2 Only: Source:... (0) flac16; Source: 2... (0) flac24; Updated... (0) flac16; (FOB)... (0) flac16; Soundboard... (0) flac24; Set 2... (0) flac16; Set 2... (0) flac16; 2 source... (0) flac16; source: aud... (0) flac24; source: aud... (0) flac1648; Master... (0) flac16; Partial Set... (2) flac16/44.1 First... (0) flac24/48 First... (0)
Date User Comment