Browse Collections Artists Sources   Search Dates

Add Show    List Management    Help


Grateful Dead 10/03/81
Rainbow Theater, London, England
Comments Add Comment    Source Collectors    Add to Collection    Add to Want List    History
Source # 143078 Other Sources
Entered by Matt Vernon
Checksums flac-md5 , ffp
Disc Counts 0 / 0
Media Size Compressed: 1.2 GB (1291931648 bytes)
Date Circulated
Date Added
09/04/2018
09/04/2018
Source Summary flac16/48kHz; Master Soundboard Cassettes > 1st generation reels (Technics)> Dat(Panasonic SV-3800)(16-bit/48k)> Tim Dalton's Dat (16-bit/48k); Transfer Info: Dat (Sony PCM-R500)(16-bit/48k)> Apogee aes/ebu cable > Tascam DA-3000 (.wav 16-bit/48k) > Adobe Audition 3.01 > TLH flac1648 
  Archive
Source Information - Download Text | Download Zip
Grateful Dead
Rainbow Theatre
London, England
Saturday   October 3rd, 1981

Source Info:
Master Soundboard Cassettes > 1st generation reels (Technics)> Dat(Panasonic SV-3800)(16-bit/48k)> Tim Dalton's Dat (16-bit/48k)

Transfer Info:
Dat (Sony PCM-R500)(16-bit/48k)> Apogee aes/ebu cable > Tascam DA-3000 (.wav 16-bit/48k) > Adobe Audition 3.01 > TLH flac1648

Notes:
- Thanks to Tim Dalton for the Dat source
- Thanks to Charlie Miller for the transfer and coordinating this effort
- Thanks to Joe B. Jones for his assistance with the pitch correction
- Cut near the end of "Franklins' Tower" (no patch source available)
- Cut in "Space" (no patch source available)
- Jam into NFA included in "Not Fade Away"

Mastered by Scott Clugston
September 2018

Set One:
s1t01 - Alabama Getaway >
s1t02 - Promised Land
s1t03 - Peggy O
s1t04 - Me & My Uncle >
s1t05 - Big River
s1t06 - Tennessee Jed
s1t07 - Little Red Rooster
s1t08 - Bird Song
s1t09 - Looks Like Rain
s1t10 - China Cat Sunflower >
s1t11 - I Know You Rider

Set Two:
s2t01 - Tuning
s2t02 - Feel Like A Stranger >
s2t03 - Franklin's Towe//r >
s2t04 - Estimated Prophet >
s2t05 - Terrapin Station >
s2t06 - Drums >
s2t07 - Spac//e >
s2t08 - Not Fade Away >
s2t09 - Morning Dew >
s2t10 - Around & Around >
s2t11 - One More Saturday Night
Encore:
s2t12 - Brokedown Palace

    length     expanded size    cdr  WAVE problems  fmt   ratio  filename
     4:22.547      50409004 B   cxx   --   ---xx   flac  0.6664  gd81-10-03 s1t01 Alabama Getaway.flac
     5:43.467      65945644 B   cxx   --   ---xx   flac  0.6237  gd81-10-03 s1t02 Promised Land.flac
     5:57.947      68725804 B   cxx   --   ---xx   flac  0.6707  gd81-10-03 s1t03 Peggy O.flac
     3:01.933      34931244 B   cxx   --   ---xx   flac  0.6587  gd81-10-03 s1t04 Me & My Uncle.flac
     6:59.200      80486444 B   cxx   --   ---xx   flac  0.6274  gd81-10-03 s1t05 Big River.flac
     8:36.347      99138604 B   cxx   --   ---xx   flac  0.6381  gd81-10-03 s1t06 Tennessee Jed.flac
     8:28.920      97712684 B   cxx   --   ---xx   flac  0.6384  gd81-10-03 s1t07 Little Red Rooster.flac
    11:38.120     134039084 B   cxx   --   ---xx   flac  0.6525  gd81-10-03 s1t08 Bird Song.flac
    10:17.760     118609964 B   cxx   --   ---xx   flac  0.6164  gd81-10-03 s1t09 Looks Like Rain.flac
     6:37.293      76280364 B   cxx   --   ---xx   flac  0.6564  gd81-10-03 s1t10 China Cat Sunflower.flac
     5:26.840      62753324 B   cxx   --   ---xx   flac  0.6665  gd81-10-03 s1t11 I Know You Rider.flac
     1:07.813      13020204 B   cxx   --   ---xx   flac  0.5448  gd81-10-03 s2t01 Crowd.flac
     8:47.533     101286444 B   cxx   --   ---xx   flac  0.6599  gd81-10-03 s2t02 Feel Like A Stranger.flac
    10:25.584     120112080 B   cxx   --   ---xx   flac  0.6604  gd81-10-03 s2t03 Franklin's Tower.flac
    13:17.973     153210924 B   cxx   --   ---xx   flac  0.6396  gd81-10-03 s2t04 Estimated Prophet.flac
    12:01.547     138537004 B   cxx   --   ---xx   flac  0.6371  gd81-10-03 s2t05 Terrapin Station.flac
    12:11.827     140510764 B   cxx   --   ---xx   flac  0.5737  gd81-10-03 s2t06 Drums.flac
     6:38.147      76444204 B   cxx   --   ---xx   flac  0.5694  gd81-10-03 s2t07 Space.flac
     9:48.520     112995884 B   cxx   --   ---xx   flac  0.6323  gd81-10-03 s2t08 Not Fade Away.flac
    11:17.627     130104364 B   cxx   --   ---xx   flac  0.6320  gd81-10-03 s2t09 Morning Dew.flac
     3:52.320      44605484 B   cxx   --   ---xx   flac  0.6504  gd81-10-03 s2t10 Around & Around.flac
     4:40.053      53770284 B   cxx   --   ---xx   flac  0.6642  gd81-10-03 s2t11 One More Saturday Night.flac
     5:26.568      62701028 B   cxx   --   ---xx   flac  0.5966  gd81-10-03 s2t12 Brokedown Palace.flac
   176:45.884    2036330832 B                            0.6344  (23 files)



Show Checksums
flac-md5
18fa0d1aeb0ce2d48ce1ba6f73d635b2 *gd81-10-03 s1t01 Alabama Getaway.flac
c1fb9c697edd1fee4c731fb5260fa4df *gd81-10-03 s1t02 Promised Land.flac
7d3282834c755f1551e29b59017f06ae *gd81-10-03 s1t03 Peggy O.flac
c93336c7fb3fd83d3a063b3394555ebe *gd81-10-03 s1t04 Me & My Uncle.flac
665e7b209d7e03ff4b6fffb73d5761e2 *gd81-10-03 s1t05 Big River.flac
f2df8cf663813b00dc0ee45198c08632 *gd81-10-03 s1t06 Tennessee Jed.flac
3655e3d42f7ce0fe8725e887902961ff *gd81-10-03 s1t07 Little Red Rooster.flac
89ae94f878ac10d75944c47cc519c25d *gd81-10-03 s1t08 Bird Song.flac
5c84c3db2812829341f2bcb129475a2d *gd81-10-03 s1t09 Looks Like Rain.flac
c91bc07eada2003a450affec6f49d821 *gd81-10-03 s1t10 China Cat Sunflower.flac
50b29aaffec333f5df31333d3b9a79c7 *gd81-10-03 s1t11 I Know You Rider.flac
c8170c46dc27570c9792991d47c434a0 *gd81-10-03 s2t01 Crowd.flac
2c8c8057c27bf28960b801bf30c355b9 *gd81-10-03 s2t02 Feel Like A Stranger.flac
38c8c78c0ff3e90d8bdf41a6a6b03449 *gd81-10-03 s2t03 Franklin's Tower.flac
b13b9ec41ee52845c4a648a8c5ee343b *gd81-10-03 s2t04 Estimated Prophet.flac
36d75bd3eea559e1226ea522e50bdb12 *gd81-10-03 s2t05 Terrapin Station.flac
7fa385bc368f9685753dba75900bd41a *gd81-10-03 s2t06 Drums.flac
2addff49498ac250caabbd0c676f1e2a *gd81-10-03 s2t07 Space.flac
641d3e67624fd85982b3b47e4db51376 *gd81-10-03 s2t08 Not Fade Away.flac
cf0f2ddb78b9e365ba2aadfc42ee19d2 *gd81-10-03 s2t09 Morning Dew.flac
864f8e6c4282bebe69f4d154a63b83b9 *gd81-10-03 s2t10 Around & Around.flac
2ad84b825505f1e910433ee337d64987 *gd81-10-03 s2t11 One More Saturday Night.flac
a6d4a01e7c032d1b6bf7535c95eb0f0b *gd81-10-03 s2t12 Brokedown Palace.flac
ffp
gd81-10-03 s1t01 Alabama Getaway.flac:3696143ece43c45b22706086aac8f300
gd81-10-03 s1t02 Promised Land.flac:fcf0b006afcc0fcaa01ab0b1b17a3ac6
gd81-10-03 s1t03 Peggy O.flac:33cf56755355b3c5c39ddb1770983de7
gd81-10-03 s1t04 Me & My Uncle.flac:f56ff6bda50a27643cd25ea6819dcfa8
gd81-10-03 s1t05 Big River.flac:aff5144bac369c0791b86794babfd418
gd81-10-03 s1t06 Tennessee Jed.flac:1076741d002ac003cd1cead45ba4d4fc
gd81-10-03 s1t07 Little Red Rooster.flac:205c8ab016b0da43c8555bc4db909fdc
gd81-10-03 s1t08 Bird Song.flac:10558d4f76328b1d8a8d674f01361a61
gd81-10-03 s1t09 Looks Like Rain.flac:bf7a9fa578363f5441af9acdce4fb9f7
gd81-10-03 s1t10 China Cat Sunflower.flac:a2721b6336f27efda2a2dbe3c2b4ce91
gd81-10-03 s1t11 I Know You Rider.flac:5ba40ad555f2d1f996fbe811531184fe
gd81-10-03 s2t01 Crowd.flac:05785a6c94b38e5d3f5f64264e86af3d
gd81-10-03 s2t02 Feel Like A Stranger.flac:b9cf39fe8e031a48aca2f0bb5c370938
gd81-10-03 s2t03 Franklin's Tower.flac:3d42a19099e8422570973dd83bcc2ec4
gd81-10-03 s2t04 Estimated Prophet.flac:c5a2c0b967ad210443308dbdf2a9aadd
gd81-10-03 s2t05 Terrapin Station.flac:8c6e7f438ae326b18d15100e92be8e82
gd81-10-03 s2t06 Drums.flac:f3f9399320405f144e1f19d0c0eba427
gd81-10-03 s2t07 Space.flac:b9a1fd9c5d2a42215ce61b1513f19900
gd81-10-03 s2t08 Not Fade Away.flac:03a96604dfe05d9f29315161403470f2
gd81-10-03 s2t09 Morning Dew.flac:55cd0133c9dc4ac1f938d9c2eace7be6
gd81-10-03 s2t10 Around & Around.flac:9959ad30619b99283c1b115063cf1e44
gd81-10-03 s2t11 One More Saturday Night.flac:882b3102359c6428f58241b28e8323ba
gd81-10-03 s2t12 Brokedown Palace.flac:55d21f7ce188bdb124f534fe7b702a58

Comments
Add Comment
Other Sources (comments)
complete; SBD> MC> DAT>... (5) flac16; Recording... (2)
Date User Comment