Browse Collections Artists Sources   Search Dates

Add Show    List Management    Help


Grateful Dead 09/10/83
Santa Fe Downs, Santa Fe, NM
Comments Add Comment    Source Collectors    Add to Collection    Add to Want List    History
Source # 143079 Other Sources
Entered by Matt Vernon
Checksums ffp , flac-md5
Disc Counts 0 / 0
Media Size
Date Circulated
Date Added

09/04/2018
Source Summary flac16/44.1 Master: AUD MC Beyer M201's X-Y 6'up > Sony TCD5M no dolby Maxell MX90 x 2 Location: 100 feet from stage, 2 ft. LOC Transfer: Nakamichi CR-5A (24/96) > Tascam DR680|SD > i7Windows7 Audacity > cdwav editor > TLH flac level 8 Mastered: Executive Crew Chris Kidwell Tom Pinney Sean Murtha Transferred: Kyle Holbrook 
  Archive
Source Information - Download Text | Download Zip
Grateful Dead
Date 1983-09-10
Downs at Santa Fe
Santa Fe NM

Set 1
d1t01 - Music Never Stopped
d1t02 - They Love Each Other     /
d1t03 - My Brother Esau          /
d1t04 - Big Railroad Blues >
d1t05 - Beat it on Down the Line
d1t06 - Tennessee Jed            //
d1t07 - New Minglewood Blues >
d1t08 - China Cat Sunflower > I Know You Rider      #

Set 2
d2t01 - tuning
d2t02 - Man Smart/Woman Smarter
d2t03 - Cumberland Blues
d2t04 - Playin' in the Band >
d2t05 - China Doll >
d2t06 - drums //
d2t07 - space >
d2t08 - The Other One >
d2t09 - Goin' Down the Road Feelin' Bad >
d2t10 - One More Saturday Night
d2t11 - encore break
d2t12 - Encore: Cold Rain and Snow          +

/     tape paused between songs
//    tape flip
#     Bobby: "We'll be right back as soon as it stops raining"
+     Phils sings harmony

Master: AUD MC Beyer M201's X-Y 6'up > Sony TCD5M no dolby
        Maxell MX90 x 2
Location: 100 feet from stage, 2 ft. LOC
Transfer: Nakamichi CR-5A (24/96) > Tascam DR680|SD > i7Windows7
          Audacity > cdwav editor > TLH flac level 8
          This is 16 bit copy
Mastered: Executive Crew Chris Kidwell Tom Pinney Sean Murtha
Transferred: Kyle Holbrook
Photography: Chris Kidwell
===========================================================================================================================
the tour story:
Sean and Chris have told me some of their memories. They showed up and were able to get a room in town which led them to experience Dia de los Muertos or "Day of the Dead" costume exhibit along with a hot air balloon launch that same weekend. The venue was on a mesa outside of town where they had a horserace track. Their were plenty of tickets available and the venue was only about 1/4 sold.

Opening with a Music Never Stopped, one of the few this tour led off the first set which seemed it might get interrupted by rain the clouds building behind the stage able to be seen from miles away over the mesa. Maybe Bobby flubbing the second verse was because he was keeping any eye on the clouds. Jerry led into some strong vocals on TLEO and Big RR blues; he was almost growling out the ending of Big RR. About then the clouds starting getting dark and the crowd could sense a storm about to hit. The complete lack of an awning over the stage turned out to be a bad idea for the crew. A mellow and well harmonized 'Beat it on Down the Line' led toward the China Cat Sunflower. There is a guy in the crowd calling for the China-Rider before they play Minglewood, classic Dead audience! Chris recalled they had to play the "China Cat' fast, then 'I Know You Rider' at double speed as the storm was about to hit. They then took down the mics and ran with the bags to the grandstands where there was enough room for everyone to hide out during the storm. The break between sets was extra long due to waiting out the rain.

The included photos are of the stage after the rain and as the rainbow formed during drums. I know this second set Cumberland > Playin > China Doll is one of Sean's favorites having heard him play copies of the tapes for so long. The China Doll is SICK! The drums are roaring and includes the emergence of the rainbow over the stage; you can hear the crowd react to the rainbow on the recording. Although short out of space, the GDTRFB has a great tempo to it and I find it groovin'. Someone on LMA claims this is the one and only time the band played 'Cold Rain and Snow' for an encore; no matter, this is a fitting and unusual "solo" version being it typically falls in between two jam sequence tunes.

- - - - - sbe’s at end of sets

    length     expanded size    cdr  WAVE problems  fmt   ratio  filename
     8:45.17       92650028 B   ---   --   ---xx   flac  0.6101  gd1983-09-10beyerm201-16s1t01.flac
     8:00.13       84702620 B   ---   --   ---xx   flac  0.6036  gd1983-09-10beyerm201-16s1t02.flac
     5:37.46       59555036 B   ---   --   ---xx   flac  0.5919  gd1983-09-10beyerm201-16s1t03.flac
     5:21.55       56753804 B   ---   --   ---xx   flac  0.6403  gd1983-09-10beyerm201-16s1t04.flac
     3:41.60       39125564 B   ---   --   ---xx   flac  0.6327  gd1983-09-10beyerm201-16s1t05.flac
     8:14.02       87146348 B   ---   --   ---xx   flac  0.6098  gd1983-09-10beyerm201-16s1t06.flac
     7:32.66       79888076 B   ---   --   ---xx   flac  0.6244  gd1983-09-10beyerm201-16s1t07.flac
    11:32.39      122159612 B   -b-   --   ---xx   flac  0.6207  gd1983-09-10beyerm201-16s1t08.flac
     1:29.32       15774908 B   ---   --   ---xx   flac  0.5007  gd1983-09-10beyerm201-16s2t01.flac
     6:19.33       66933260 B   ---   --   ---xx   flac  0.6089  gd1983-09-10beyerm201-16s2t02.flac
     8:00.69       84834332 B   ---   --   ---xx   flac  0.5886  gd1983-09-10beyerm201-16s2t03.flac
    12:11.30      129019004 B   ---   --   ---xx   flac  0.6015  gd1983-09-10beyerm201-16s2t04.flac
     9:20.16       98821676 B   ---   --   ---xx   flac  0.5859  gd1983-09-10beyerm201-16s2t05.flac
     7:57.02       84147548 B   ---   --   ---xx   flac  0.5659  gd1983-09-10beyerm201-16s2t06.flac
    12:55.60      136851164 B   ---   --   ---xx   flac  0.5206  gd1983-09-10beyerm201-16s2t07.flac
     6:58.69       73897532 B   ---   --   ---xx   flac  0.6052  gd1983-09-10beyerm201-16s2t08.flac
     6:35.05       69689804 B   ---   --   ---xx   flac  0.6191  gd1983-09-10beyerm201-16s2t09.flac
     4:31.07       47820908 B   ---   --   ---xx   flac  0.6216  gd1983-09-10beyerm201-16s2t10.flac
     1:01.02       10765148 B   ---   --   ---xx   flac  0.5009  gd1983-09-10beyerm201-16s2t11.flac
     6:00.13       63535744 B   -b-   --   ---xx   flac  0.6140  gd1983-09-10beyerm201-16s2t12.flac
   142:06.36     1504072116 B                            0.5969  (20 files)





Show Checksums
ffp
gd1983-09-10beyerm201-16s1t01.flac:e408a591e677047e5733461e1d966f49
gd1983-09-10beyerm201-16s1t02.flac:67ca456a2535673047adf1e7787db7d8
gd1983-09-10beyerm201-16s1t03.flac:5477c4ebe6e39ef03d2ea3cd01f6a95f
gd1983-09-10beyerm201-16s1t04.flac:e90b6a7c95f4538712ec31d8f6f28b42
gd1983-09-10beyerm201-16s1t05.flac:2ccf7e8200ac47925e575186bd0c035d
gd1983-09-10beyerm201-16s1t06.flac:277d21d52545152a07f7bca191fbce6c
gd1983-09-10beyerm201-16s1t07.flac:d9e52f7accd0b4bb61c9ef006f6ec9ba
gd1983-09-10beyerm201-16s1t08.flac:38e55b4b5c081966d5991edb71f0bf60
gd1983-09-10beyerm201-16s2t01.flac:d1376665b9cf8162d9a711a8583adb92
gd1983-09-10beyerm201-16s2t02.flac:351b5116cffd3d1402aa393e05edf0da
gd1983-09-10beyerm201-16s2t03.flac:5567b83cb950e41e84c1d9ef7a82bbe8
gd1983-09-10beyerm201-16s2t04.flac:299deb411e6eb428b6ae1f9ad7d1e780
gd1983-09-10beyerm201-16s2t05.flac:00a8fa7584b81aa66314c01bee9b4e92
gd1983-09-10beyerm201-16s2t06.flac:cf41de00b3f6d8eda59e8a2770d6f27f
gd1983-09-10beyerm201-16s2t07.flac:aacb94463597dcda1cc34e4089d15e4c
gd1983-09-10beyerm201-16s2t08.flac:b441f2fc8d04c3c8c6a0bcdedd441d6a
gd1983-09-10beyerm201-16s2t09.flac:397299277f4f466a84f8b27515da5b26
gd1983-09-10beyerm201-16s2t10.flac:5dcf4d3e0c63047b4323ad19fd76f5af
gd1983-09-10beyerm201-16s2t11.flac:9553776cf206bb98bec9b3331c1787de
gd1983-09-10beyerm201-16s2t12.flac:35b3215466bc37f0232d64c7e35fb493
flac-md5
d95d9e9a0358e6b5d25730980646c791 *gd1983-09-10beyerm201-16s1t01.flac
cd4aa973c7bfdfde84fca27fbdf272f9 *gd1983-09-10beyerm201-16s1t02.flac
ee33472f6d8171899c8b3855e717a520 *gd1983-09-10beyerm201-16s1t03.flac
0430d4c3576ccb5f06935a2e7c766014 *gd1983-09-10beyerm201-16s1t04.flac
8bd5a7bb169f9c143f7e8ab779095925 *gd1983-09-10beyerm201-16s1t05.flac
6856b43fda895f2bac6cbe2013159dfc *gd1983-09-10beyerm201-16s1t06.flac
dac4dc8bda49d0b9670aa1cc235b281b *gd1983-09-10beyerm201-16s1t07.flac
4f5cd32c1bcdce935c63f205508862fb *gd1983-09-10beyerm201-16s1t08.flac
953aeae98f8ba3cc5ddf821f6b1fa75d *gd1983-09-10beyerm201-16s2t01.flac
1fc826c7bea8d59cdfa3f9eefe8ee24b *gd1983-09-10beyerm201-16s2t02.flac
08b5eb55f83dd106c02bd289a3764475 *gd1983-09-10beyerm201-16s2t03.flac
ed690b25af023096dc1e9fa96da27f50 *gd1983-09-10beyerm201-16s2t04.flac
2a7c059613a9d342f97be65b84b51815 *gd1983-09-10beyerm201-16s2t05.flac
efde28a5ede64283b353f0af73676f18 *gd1983-09-10beyerm201-16s2t06.flac
4e20cca26538a2494d998cfa73be7b7d *gd1983-09-10beyerm201-16s2t07.flac
0bd9a3d15f050b871d9f5a838a29107a *gd1983-09-10beyerm201-16s2t08.flac
dcd071d108d78530cbd8637c16e356a5 *gd1983-09-10beyerm201-16s2t09.flac
8c5e8f17f10a09b80da188b1be31b86c *gd1983-09-10beyerm201-16s2t10.flac
ab2175b5673464954e4be2b372dea133 *gd1983-09-10beyerm201-16s2t11.flac
dffbba478d004cddbacabe96c7edaa52 *gd1983-09-10beyerm201-16s2t12.flac

Comments
Add Comment
Other Sources (comments)
Sources: Primary: Jeff... (0) flac16; Source:... (0) flac16; Recording... (0) flac16; Analog... (0) flac24; 2 x... (0) flac16; Lineage:... (0) flac16; source: 2... (0) flac24; billydee... (0) flac16/48kHz;... (0) flac16; Matrix by... (0) flac16; billydee... (0) flac24/48 Master:... (0)
Date User Comment