Browse Collections Artists Sources   Search Dates

Add Show    List Management    Help


Grateful Dead 09/10/83
Santa Fe Downs, Santa Fe, NM
Comments Add Comment    Source Collectors    Add to Collection    Add to Want List    History
Source # 143080 Other Sources
Entered by Matt Vernon
Checksums ffp , flac-md5
Disc Counts 0 / 0
Media Size
Date Circulated
Date Added

09/04/2018
Source Summary flac24/48 Master: AUD MC Beyer M201's X-Y 6'up > Sony TCD5M no dolby Maxell MX90 x 2 Location: 100 feet from stage, 2 ft. LOC Transfer: Nakamichi CR-5A (24/96) > Tascam DR680|SD > i7Windows7 Audacity > cdwav editor > TLH flac level 8 Mastered: Executive Crew Chris Kidwell Tom Pinney Sean Murtha Transferred: Kyle Holbrook 
  Archive
Source Information - Download Text | Download Zip
Grateful Dead
Date 1983-09-10
Downs at Santa Fe
Santa Fe NM

Set 1
d1t01 - Music Never Stopped
d1t02 - They Love Each Other     /
d1t03 - My Brother Esau          /
d1t04 - Big Railroad Blues >
d1t05 - Beat it on Down the Line
d1t06 - Tennessee Jed            //
d1t07 - New Minglewood Blues >
d1t08 - China Cat Sunflower > I Know You Rider      #

Set 2
d2t01 - tuning
d2t02 - Man Smart/Woman Smarter
d2t03 - Cumberland Blues
d2t04 - Playin' in the Band >
d2t05 - China Doll >
d2t06 - drums //
d2t07 - space >
d2t08 - The Other One >
d2t09 - Goin' Down the Road Feelin' Bad >
d2t10 - One More Saturday Night
d2t11 - encore break
d2t12 - Encore: Cold Rain and Snow          +

/     tape paused between songs
//    tape flip
#     Bobby: "We'll be right back as soon as it stops raining"
+     Phils sings harmony

Master: AUD MC Beyer M201's X-Y 6'up > Sony TCD5M no dolby
        Maxell MX90 x 2
Location: 100 feet from stage, 2 ft. LOC
Transfer: Nakamichi CR-5A (24/96) > Tascam DR680|SD > i7Windows7
          Audacity > cdwav editor > TLH flac level 8
          This is 24 bit copy
Mastered: Executive Crew Chris Kidwell Tom Pinney Sean Murtha
Transferred: Kyle Holbrook
Photography: Chris Kidwell
===========================================================================================================================
the tour story:
Sean and Chris have told me some of their memories. They showed up and were able to get a room in town which led them to experience Dia de los Muertos or "Day of the Dead" costume exhibit along with a hot air balloon launch that same weekend. The venue was on a mesa outside of town where they had a horserace track. Their were plenty of tickets available and the venue was only about 1/4 sold.

Opening with a Music Never Stopped, one of the few this tour led off the first set which seemed it might get interrupted by rain the clouds building behind the stage able to be seen from miles away over the mesa. Maybe Bobby flubbing the second verse was because he was keeping any eye on the clouds. Jerry led into some strong vocals on TLEO and Big RR blues; he was almost growling out the ending of Big RR. About then the clouds starting getting dark and the crowd could sense a storm about to hit. The complete lack of an awning over the stage turned out to be a bad idea for the crew. A mellow and well harmonized 'Beat it on Down the Line' led toward the China Cat Sunflower. There is a guy in the crowd calling for the China-Rider before they play Minglewood, classic Dead audience! Chris recalled they had to play the "China Cat' fast, then 'I Know You Rider' at double speed as the storm was about to hit. They then took down the mics and ran with the bags to the grandstands where there was enough room for everyone to hide out during the storm. The break between sets was extra long due to waiting out the rain.

The included photos are of the stage after the rain and as the rainbow formed during drums. I know this second set Cunmberland > Playin > China Doll is one of Sean's favorites having heard him play copies of the tapes for so long. The China Doll is SICK! The drums are roaring and includes the emergence of the rainbow over the stage; you can hear the crowd react to the rainbow on the recording. Although short out of space, the GDTRFB has a great tempo to it and I find it groovin'. Someone on LMA claims this is the one and only time the band played 'Cold Rain and Snow' for an encore; no matter, this is a fitting and unusual "solo" version being it typically falls in between two jam sequence tunes.

- - - - -
    length     expanded size    cdr  WAVE problems  fmt   ratio  filename
     8:45.227     151265324 B   cxx   --   ---xx   flac  0.7363  gd1983-09-10beyerm201-24s1t01.flac
     8:00.173     138289964 B   cxx   --   ---xx   flac  0.7324  gd1983-09-10beyerm201-24s1t02.flac
     5:37.613      97232684 B   cxx   --   ---xx   flac  0.7252  gd1983-09-10beyerm201-24s1t03.flac
     5:21.733      92659244 B   cxx   --   ---xx   flac  0.7551  gd1983-09-10beyerm201-24s1t04.flac
     3:41.800      63878444 B   cxx   --   ---xx   flac  0.7505  gd1983-09-10beyerm201-24s1t05.flac
     8:14.027     142279724 B   cxx   --   ---xx   flac  0.7362  gd1983-09-10beyerm201-24s1t06.flac
     7:32.880     130429484 B   cxx   --   ---xx   flac  0.7455  gd1983-09-10beyerm201-24s1t07.flac
    11:32.515     199444238 B   cxx   --   ---xx   flac  0.7431  gd1983-09-10beyerm201-24s1t08.flac
     1:29.427      25754924 B   cxx   --   ---xx   flac  0.6683  gd1983-09-10beyerm201-24s2t01.flac
     6:19.440     109278764 B   cxx   --   ---xx   flac  0.7354  gd1983-09-10beyerm201-24s2t02.flac
     8:00.920     138505004 B   cxx   --   ---xx   flac  0.7227  gd1983-09-10beyerm201-24s2t03.flac
    12:11.400     210643244 B   cxx   --   ---xx   flac  0.7309  gd1983-09-10beyerm201-24s2t04.flac
     9:20.213     161341484 B   cxx   --   ---xx   flac  0.7216  gd1983-09-10beyerm201-24s2t05.flac
     7:57.027     137383724 B   cxx   --   ---xx   flac  0.7090  gd1983-09-10beyerm201-24s2t06.flac
    12:55.800     223430444 B   cxx   --   ---xx   flac  0.6810  gd1983-09-10beyerm201-24s2t07.flac
     6:58.920     120649004 B   cxx   --   ---xx   flac  0.7331  gd1983-09-10beyerm201-24s2t08.flac
     6:35.067     113779244 B   cxx   --   ---xx   flac  0.7414  gd1983-09-10beyerm201-24s2t09.flac
     4:31.093      78074924 B   cxx   --   ---xx   flac  0.7431  gd1983-09-10beyerm201-24s2t10.flac
     1:01.027      17575724 B   cxx   --   ---xx   flac  0.6687  gd1983-09-10beyerm201-24s2t11.flac
     6:00.180     103731800 B   cxx   --   ---xx   flac  0.7384  gd1983-09-10beyerm201-24s2t12.flac
   142:06.481    2455627390 B                            0.7282  (20 files)




Show Checksums
ffp
gd1983-09-10beyerm201-24s1t01.flac:afeca2e90c42a9aa368225485717e5ed
gd1983-09-10beyerm201-24s1t02.flac:97866434845a45b86d37d449a78c765d
gd1983-09-10beyerm201-24s1t03.flac:a4ee05787024d834dc65806b87fce969
gd1983-09-10beyerm201-24s1t04.flac:5eb8e6f0c040c3739c31111aeccfc47c
gd1983-09-10beyerm201-24s1t05.flac:633776d8ad17c64edb34214d3a577f03
gd1983-09-10beyerm201-24s1t06.flac:9ba5edf4d33b33a6a057971f9198d4c5
gd1983-09-10beyerm201-24s1t07.flac:41163fb6bc9e03545ca69c10d9849eaa
gd1983-09-10beyerm201-24s1t08.flac:cdd32e25086514e2c691afed2c0456e3
gd1983-09-10beyerm201-24s2t01.flac:76520c0c0f6250e7353129b804ab1558
gd1983-09-10beyerm201-24s2t02.flac:2f5cbd1bfff57e359d59573b068950e8
gd1983-09-10beyerm201-24s2t03.flac:c447170b4b7412e65198cb6af4a6e97b
gd1983-09-10beyerm201-24s2t04.flac:081b505e9e96d9c1b7f140cfe5dc0efa
gd1983-09-10beyerm201-24s2t05.flac:20f84fb2be904de05a788d349c423972
gd1983-09-10beyerm201-24s2t06.flac:c7b40ec4351e3f0e868752053fb56c67
gd1983-09-10beyerm201-24s2t07.flac:f7d28e7be0deb340b531a6db0a63918e
gd1983-09-10beyerm201-24s2t08.flac:9e25893429888fe5ae2c386d03f333cb
gd1983-09-10beyerm201-24s2t09.flac:1d4798e007be3070efbd3f9c0e02ce6e
gd1983-09-10beyerm201-24s2t10.flac:4cde230dfe5e386fbb3a0270cd04b148
gd1983-09-10beyerm201-24s2t11.flac:cbbe1b727ce3cb3b32669d2e9eb6f51d
gd1983-09-10beyerm201-24s2t12.flac:4696a3b4e23a37fbda42624f1db52650
flac-md5
b58e5b7f74c337926e468cec762f42eb *gd1983-09-10beyerm201-24s1t01.flac
2901d33bb4ea5c02927cd93b5285c86f *gd1983-09-10beyerm201-24s1t02.flac
275ca698274499c2cf83b7f2e322272b *gd1983-09-10beyerm201-24s1t03.flac
d3a1bdc945834f0454731b2e7701f19e *gd1983-09-10beyerm201-24s1t04.flac
564a34084160a676ebd717d3c3a602b8 *gd1983-09-10beyerm201-24s1t05.flac
76f280fed1a698d3dde1914bdec10cfe *gd1983-09-10beyerm201-24s1t06.flac
147d8b5a7c6a0f64590e99c63b36905d *gd1983-09-10beyerm201-24s1t07.flac
11c65bb6d963ff6ca57b61e12775fbda *gd1983-09-10beyerm201-24s1t08.flac
a1df9bd2105e805633d7070edcc54313 *gd1983-09-10beyerm201-24s2t01.flac
6b9ed187652417636295de3f1d5bde6f *gd1983-09-10beyerm201-24s2t02.flac
01605187baa8eecf1550589793021536 *gd1983-09-10beyerm201-24s2t03.flac
53283c0db5f10a894a9778e2a35df236 *gd1983-09-10beyerm201-24s2t04.flac
e3172a0c65c599800a05686f736d989c *gd1983-09-10beyerm201-24s2t05.flac
f9a82b3f947e6477b6b2fe6f988c60b5 *gd1983-09-10beyerm201-24s2t06.flac
ff34f7728ec649a98a552b0dbffd28ac *gd1983-09-10beyerm201-24s2t07.flac
56641cebb4d4fdee402df63dbb055ede *gd1983-09-10beyerm201-24s2t08.flac
e324bb2155bf18800df6aedc28d178ef *gd1983-09-10beyerm201-24s2t09.flac
54b2520b6683e73a8de292fe9ecaad1f *gd1983-09-10beyerm201-24s2t10.flac
803ed840b8ab8c5249787471b61904dd *gd1983-09-10beyerm201-24s2t11.flac
ec499e8e7947f1666a717e15ceed84ab *gd1983-09-10beyerm201-24s2t12.flac

Comments
Add Comment
Other Sources (comments)
Sources: Primary: Jeff... (0) flac16; Source:... (0) flac16; Recording... (0) flac16; Analog... (0) flac24; 2 x... (0) flac16; Lineage:... (0) flac16; source: 2... (0) flac24; billydee... (0) flac16/48kHz;... (0) flac16; Matrix by... (0) flac16; billydee... (0) flac16/44.1 ... (0)
Date User Comment