Browse Collections Artists Sources   Search Dates

Add Show    List Management    Help


Grateful Dead 09/11/83
Santa Fe Downs, Santa Fe, NM
Comments Add Comment    Source Collectors    Add to Collection    Add to Want List    History
Source # 143081 Other Sources
Entered by Matt Vernon
Checksums ffp , flac-md5
Disc Counts 0 / 0
Media Size
Date Circulated
Date Added

09/04/2018
Source Summary flac16/44.1 Master: AUD MC Beyer M201's X-Y 6'up > Sony TCD5M no dolby Maxell UDXLII90 x 2 Location: 100 feet from stage DFC Transfer: Nakamichi CR-5A (24/96) > Tascam DR680|SD > i7Windows7 Audacity > cdwav editor > TLH flac level 8 Mastered: Executive Crew Chris Kidwell Tom Pinney Sean Murtha Transferred: Kyle Holbrook 
  Archive
Source Information - Download Text | Download Zip
Grateful Dead
Date 1983-09-11
Downs at Santa Fe
Santa Fe NM

d1t01 - Intro
d1t02 - Alabama Getaway >
d1t03 - Greatest Story Ever Told
d1t04 - Dire Wolf          /
d1t05 - Hell in a Bucket   /
d1t06 - West L.A. Fadeaway /
d1t07 - Me and My Uncle >
d1t08 - Mexicali Blues    //
d1t09 - Althea            /
d1t10 - C.C. Rider
d1t11 - Might As Well

d2t01 - tuning
d2t02 - Help on the Way > Slipknot! > Franklin's Tower /
d2t03 - Let it Grow       //
d2t04 - He's Gone >
d2t05 - drums >
d2t06 - space >
d2t07 - Truckin'          ///
d2t08 - Wang Dang Doodle >
d2t09 - Morning Dew >
d2t10 - Around and Around >
d2t11 - Sugar Magnolia
d2t12 - Encore: U.S. Blues      +

Mickey Hart's 40th birthday
/    tape paused between songs
//   tape flip
///  tape swap back to tape 1 side B
+    Missing on both First Gen and Master tapes

Master: AUD MC Beyer M201's X-Y 6'up > Sony TCD5M no dolby
        Maxell UDXLII90 x 2
Location: 100 feet from stage DFC
Transfer: Nakamichi CR-5A (24/96) > Tascam DR680|SD > i7Windows7
          Audacity > cdwav editor > TLH flac level 8
          This is 16 bit copy
Mastered: Executive Crew Chris Kidwell Tom Pinney Sean Murtha
Transferred: Kyle Holbrook
==========================================================================================================================
The tour story:
The hot air balloons took off on this morning heading to Albuquerque for their annual race. The guys said they had a balst in town with all the celebrants of the local festivities and a significant but not a huge amount of deadheads in town. The show was again undersold with weather promising to be similar to the day before, ultimately turning out to be better with a shorter less significant rain-shower.

Brent comes out with some nice Hammond licks during the Alabama Getaway opener so Jerry hits back with some kickin' licks of his own. This show rivals the previous night with its' great but smooth and deliberate performance. The 'Greatest Story' continues to build and create a first set of classic "Americana" Dead tunes. Aside from the relatively new, more urban West LA and Bucket they rip through Direwolf, Me & My Mexicali, Althea, CC Rider, and Might as Well. All well played and less rushed than the previous night's first set ending.

Another Help > Slip! > Franklin's for the set 2 opener and it sounds so tight the sound on the mesa must have been captivating. "One watch by Dight" during Franklin's Tower. The Let it Grow continues the tone for the rest of this show. Enjoy.

- - - - - sbe’s at end of sets

    length     expanded size    cdr  WAVE problems  fmt   ratio  filename
     2:30.15       26495324 B   ---   --   ---xx   flac  0.4894  gd1983-09-11beyerm201-16s1t01.flac
     5:01.68       53256380 B   ---   --   ---xx   flac  0.6191  gd1983-09-11beyerm201-16s1t02.flac
     4:26.35       47004764 B   ---   --   ---xx   flac  0.6033  gd1983-09-11beyerm201-16s1t03.flac
     4:09.49       44038892 B   ---   --   ---xx   flac  0.5635  gd1983-09-11beyerm201-16s1t04.flac
     5:32.51       58684796 B   ---   --   ---xx   flac  0.5932  gd1983-09-11beyerm201-16s1t05.flac
     9:29.73      100543340 B   ---   --   ---xx   flac  0.5747  gd1983-09-11beyerm201-16s1t06.flac
     3:03.57       32415308 B   ---   --   ---xx   flac  0.5907  gd1983-09-11beyerm201-16s1t07.flac
     5:35.61       59237516 B   ---   --   ---xx   flac  0.5914  gd1983-09-11beyerm201-16s1t08.flac
     7:21.57       77926508 B   ---   --   ---xx   flac  0.6053  gd1983-09-11beyerm201-16s1t09.flac
     8:03.70       85365884 B   ---   --   ---xx   flac  0.5901  gd1983-09-11beyerm201-16s1t10.flac
     4:33.27       48221208 B   -b-   --   ---xx   flac  0.6241  gd1983-09-11beyerm201-16s1t11.flac
     1:04.68       11449580 B   ---   --   ---xx   flac  0.4831  gd1983-09-11beyerm201-16s2t01.flac
    20:33.70      217665884 B   ---   --   ---xx   flac  0.5865  gd1983-09-11beyerm201-16s2t02.flac
    14:31.57      153778508 B   ---   --   ---xx   flac  0.5978  gd1983-09-11beyerm201-16s2t03.flac
    10:57.68      116054780 B   ---   --   ---xx   flac  0.5692  gd1983-09-11beyerm201-16s2t04.flac
     9:18.61       98574716 B   ---   --   ---xx   flac  0.5844  gd1983-09-11beyerm201-16s2t05.flac
     8:04.09       85398812 B   ---   --   ---xx   flac  0.5870  gd1983-09-11beyerm201-16s2t06.flac
    13:54.72      147286988 B   ---   --   ---xx   flac  0.6815  gd1983-09-11beyerm201-16s2t07.flac
     5:19.06       56285756 B   ---   --   ---xx   flac  0.6458  gd1983-09-11beyerm201-16s2t08.flac
    10:07.12      107103068 B   ---   --   ---xx   flac  0.6194  gd1983-09-11beyerm201-16s2t09.flac
     3:41.25       39043244 B   ---   --   ---xx   flac  0.6609  gd1983-09-11beyerm201-16s2t10.flac
    10:16.13      108691968 B   -b-   --   ---xx   flac  0.6688  gd1983-09-11beyerm201-16s2t11.flac
   167:39.49     1774523224 B                            0.6052  (22 files)




Show Checksums
ffp
gd1983-09-11beyerm201-16s1t01.flac:209e05fe5d231829df03a74a80a78f08
gd1983-09-11beyerm201-16s1t02.flac:54bad1d7234ac4d8960d5b10106ef148
gd1983-09-11beyerm201-16s1t03.flac:3c09a9d8864dfd333d6689b8dba8aa28
gd1983-09-11beyerm201-16s1t04.flac:f565a531444cb1dbd9bb0424713a94a7
gd1983-09-11beyerm201-16s1t05.flac:9a7c2ce35831bfe58719dd310a2974c4
gd1983-09-11beyerm201-16s1t06.flac:346b569f27ecca008461929bd3ba0636
gd1983-09-11beyerm201-16s1t07.flac:807a3b7978ffc9ae79d9d60e750b6fc2
gd1983-09-11beyerm201-16s1t08.flac:016ce816c86057e43d1b2f6a7804e402
gd1983-09-11beyerm201-16s1t09.flac:6ec9977a1b5476aa54be632a983e2f15
gd1983-09-11beyerm201-16s1t10.flac:6dec69ca7bc9270480de2083c7a2938f
gd1983-09-11beyerm201-16s1t11.flac:7f233508cd2ab28b7731db609289379f
gd1983-09-11beyerm201-16s2t01.flac:42e0724847ae17738ee01023ccb5c2f9
gd1983-09-11beyerm201-16s2t02.flac:8d0dd51a036d498c4325fb406e8c2bea
gd1983-09-11beyerm201-16s2t03.flac:f8e2ef06da9771c89900c74ad600a18a
gd1983-09-11beyerm201-16s2t04.flac:9dba1e2793d4c6ca2012ba2365923392
gd1983-09-11beyerm201-16s2t05.flac:42658f59617ad959bd1d40891afc1b34
gd1983-09-11beyerm201-16s2t06.flac:740f7824ec9005c2f598f3ac8bf71233
gd1983-09-11beyerm201-16s2t07.flac:1a9a9fbf3a6832e555f504609caf0f50
gd1983-09-11beyerm201-16s2t08.flac:5819beea1a54569bd33d8e88afcfbb02
gd1983-09-11beyerm201-16s2t09.flac:febe8f1580c141b9110dfa1797f4bc27
gd1983-09-11beyerm201-16s2t10.flac:718ae9cdf360885b2ba1b08d416f7d47
gd1983-09-11beyerm201-16s2t11.flac:9adbbff9b452702a83affbad62c5c573
flac-md5
0ce7b5db7b3d1400d27d174dd6139cd2 *gd1983-09-11beyerm201-16s1t01.flac
d83f423046baf286d82e269162393fa3 *gd1983-09-11beyerm201-16s1t02.flac
39bdba3d66f8f650c381c4860ab8e5e8 *gd1983-09-11beyerm201-16s1t03.flac
f2eec5e5cb9774654530785b96eda529 *gd1983-09-11beyerm201-16s1t04.flac
5a7c3a54a84e91e9b68952b13e12a954 *gd1983-09-11beyerm201-16s1t05.flac
8009080aa831c01fcbf945148a94ef4c *gd1983-09-11beyerm201-16s1t06.flac
6c0d0d46c2f8a91f7d282eb55842dd8e *gd1983-09-11beyerm201-16s1t07.flac
a9f727e54b0cbc17f71c1373db945f2d *gd1983-09-11beyerm201-16s1t08.flac
c36af7accdb71baac3f8acb6b0510677 *gd1983-09-11beyerm201-16s1t09.flac
1b239e081f486809ec235d8c5380fe5f *gd1983-09-11beyerm201-16s1t10.flac
df30dd4fa4697eb265a82337216530fa *gd1983-09-11beyerm201-16s1t11.flac
8fe0eeff759745f12ea7abef648e1f3e *gd1983-09-11beyerm201-16s2t01.flac
ed975540ebf3763740b1128c153c26d7 *gd1983-09-11beyerm201-16s2t02.flac
4fcfe516a85a525b5e6972c664cff2a7 *gd1983-09-11beyerm201-16s2t03.flac
a1ee6bb4d47c8250ee70143adc5cd08c *gd1983-09-11beyerm201-16s2t04.flac
993499dfa8b645cee7e46347b4eacf0f *gd1983-09-11beyerm201-16s2t05.flac
fea927965d3622591233370991568d3b *gd1983-09-11beyerm201-16s2t06.flac
dfed6a27f912e4dbefc0f7ff45638d14 *gd1983-09-11beyerm201-16s2t07.flac
930db66184d5fbd30a5610ee828e4fd1 *gd1983-09-11beyerm201-16s2t08.flac
85f908e3c658d9ce01b5c22bae21d7f4 *gd1983-09-11beyerm201-16s2t09.flac
1e352f1d4b97a15d210cb2088dbfcd76 *gd1983-09-11beyerm201-16s2t10.flac
dffe9ec737058dcfd66da20d2a5e8cf0 *gd1983-09-11beyerm201-16s2t11.flac

Comments
Add Comment
Other Sources (comments)
Source: Jeff Silberman's... (1) SBD> Master Cassette> 1... (0) Source: Jeff Silberman's... (1) flac16; Source:... (0) flac16; Source:... (0) SBD-> ?->CD->EAC->WAV->SHN... (1) flac16; source: 2... (0) flac16; 2 Source... (0) flac16; 2 Source... (0) flac24; billydee... (0) flac16; Set 2 Jeff... (0) flac16; billydee... (0) flac24/48 Master:... (0)
Date User Comment