Browse Collections Artists Sources   Search Dates

Add Show    List Management    Help


Grateful Dead 09/11/83
Santa Fe Downs, Santa Fe, NM
Comments Add Comment    Source Collectors    Add to Collection    Add to Want List    History
Source # 143082 Other Sources
Entered by Matt Vernon
Checksums ffp , flac-md5
Disc Counts 0 / 0
Media Size
Date Circulated
Date Added

09/04/2018
Source Summary flac24/48 Master: AUD MC Beyer M201's X-Y 6'up > Sony TCD5M no dolby Maxell UDXLII90 x 2 Location: 100 feet from stage DFC Transfer: Nakamichi CR-5A (24/96) > Tascam DR680|SD > i7Windows7 Audacity > cdwav editor > TLH flac level 8 Mastered: Executive Crew Chris Kidwell Tom Pinney Sean Murtha Transferred: Kyle Holbrook 
  Archive
Source Information - Download Text | Download Zip
Grateful Dead
Date 1983-09-11
Downs at Santa Fe
Santa Fe NM

Set 1
d1t01 - Intro
d1t02 - Alabama Getaway >
d1t03 - Greatest Story Ever Told
d1t04 - Dire Wolf          /
d1t05 - Hell in a Bucket   /
d1t06 - West L.A. Fadeaway /
d1t07 - Me and My Uncle >
d1t08 - Mexicali Blues    //
d1t09 - Althea            /
d1t10 - C.C. Rider
d1t11 - Might As Well

Set 2
d2t01 - tuning
d2t02 - Help on the Way > Slipknot! > Franklin's Tower /
d2t03 - Let it Grow       //
d2t04 - He's Gone >
d2t05 - drums >
d2t06 - space >
d2t07 - Truckin'          ///
d2t08 - Wang Dang Doodle >
d2t09 - Morning Dew >
d2t10 - Around and Around >
d2t11 - Sugar Magnolia
d2t12 - Encore: U.S. Blues      +

Mickey Hart's 40th birthday
/    tape paused between songs
//   tape flip
///  tape swap back to tape 1 side B
+    Missing on both First Gen and Master tapes

Master: AUD MC Beyer M201's X-Y 6'up > Sony TCD5M no dolby
        Maxell UDXLII90 x 2
Location: 100 feet from stage DFC
Transfer: Nakamichi CR-5A (24/96) > Tascam DR680|SD > i7Windows7
          Audacity > cdwav editor > TLH flac level 8
          This is 24 bit copy
Mastered: Executive Crew Chris Kidwell Tom Pinney Sean Murtha
Transferred: Kyle Holbrook
==========================================================================================================================
The tour story:
The hot air balloons took off on this morning heading to Albuquerque for their annual race. The guys said they had a blast in town with all the celebrants of the local festivities and a significant but not a huge amount of deadheads in town. The show was again undersold with weather promising to be similar to the day before, ultimately turning out to be better with a shorter less significant rain shower.

Brent comes out with some nice Hammond licks during the Alabama Getaway opener so Jerry hits back with some kickin' licks of his own. This show rivals the previous night with its' great but smooth and deliberate performance. The 'Greatest Story' continues to build and create a first set of classic "Americana" Dead tunes. Aside from the relatively new, more urban West LA and Bucket they rip through Direwolf, Me & My Mexicali, Althea, CC Rider, and Might as Well. All well played and less rushed than the previous night's first set ending.

Another Help > Slip! > Franklin's for the set 2 opener and it sounds so tight the sound on the mesa must have been captivating. "One watch by Dight" during Franklin's Tower. The Let it Grow continues the tone for the rest of this show. Enjoy.

- - - - -
    length     expanded size    cdr  WAVE problems  fmt   ratio  filename
     2:30.200      43257644 B   cxx   --   ---xx   flac  0.6596  gd1983-09-11beyerm201-24s1t01.flac
     5:01.907      86949164 B   cxx   --   ---xx   flac  0.7398  gd1983-09-11beyerm201-24s1t02.flac
     4:26.467      76742444 B   cxx   --   ---xx   flac  0.7302  gd1983-09-11beyerm201-24s1t03.flac
     4:09.653      71900204 B   cxx   --   ---xx   flac  0.7055  gd1983-09-11beyerm201-24s1t04.flac
     5:32.680      95811884 B   cxx   --   ---xx   flac  0.7238  gd1983-09-11beyerm201-24s1t05.flac
     9:29.973     164152364 B   cxx   --   ---xx   flac  0.7126  gd1983-09-11beyerm201-24s1t06.flac
     3:03.760      52922924 B   cxx   --   ---xx   flac  0.7224  gd1983-09-11beyerm201-24s1t07.flac
     5:35.813      96714284 B   cxx   --   ---xx   flac  0.7229  gd1983-09-11beyerm201-24s1t08.flac
     7:21.760     127226924 B   cxx   --   ---xx   flac  0.7316  gd1983-09-11beyerm201-24s1t09.flac
     8:03.933     139372844 B   cxx   --   ---xx   flac  0.7230  gd1983-09-11beyerm201-24s1t10.flac
     4:33.363      78728474 B   cxx   --   ---xx   flac  0.7439  gd1983-09-11beyerm201-24s1t11.flac
     1:04.907      18693164 B   cxx   --   ---xx   flac  0.6563  gd1983-09-11beyerm201-24s2t01.flac
    20:33.933     355372844 B   cxx   --   ---xx   flac  0.7206  gd1983-09-11beyerm201-24s2t02.flac
    14:31.760     251066924 B   cxx   --   ---xx   flac  0.7277  gd1983-09-11beyerm201-24s2t03.flac
    10:57.907     189477164 B   cxx   --   ---xx   flac  0.7101  gd1983-09-11beyerm201-24s2t04.flac
     9:18.813     160938284 B   cxx   --   ---xx   flac  0.7200  gd1983-09-11beyerm201-24s2t05.flac
     8:04.120     139426604 B   cxx   --   ---xx   flac  0.7240  gd1983-09-11beyerm201-24s2t06.flac
    13:54.960     240468524 B   cxx   --   ---xx   flac  0.7821  gd1983-09-11beyerm201-24s2t07.flac
     5:19.080      91895084 B   cxx   --   ---xx   flac  0.7599  gd1983-09-11beyerm201-24s2t08.flac
    10:07.160     174862124 B   cxx   --   ---xx   flac  0.7436  gd1983-09-11beyerm201-24s2t09.flac
     3:41.333      63744044 B   cxx   --   ---xx   flac  0.7692  gd1983-09-11beyerm201-24s2t10.flac
    10:16.167     177456248 B   cxx   --   ---xx   flac  0.7741  gd1983-09-11beyerm201-24s2t11.flac
   167:39.650    2897180162 B                            0.7329  (22 files)




Show Checksums
ffp
gd1983-09-11beyerm201-24s1t01.flac:c338a321e878daca90d0021c2c8091dc
gd1983-09-11beyerm201-24s1t02.flac:da46c53121b4337d631ab4e41533a1a8
gd1983-09-11beyerm201-24s1t03.flac:bd0fc7f33eb79fff6f5910ede1bcd096
gd1983-09-11beyerm201-24s1t04.flac:ef33fc245bd0361e08f0ac745de43588
gd1983-09-11beyerm201-24s1t05.flac:f0d15f15b43727e4cb298f68a5af3cb5
gd1983-09-11beyerm201-24s1t06.flac:b3da0e3f4245e6b303d7ab0c2431b55c
gd1983-09-11beyerm201-24s1t07.flac:0e9aa4e1f3928e4f7510b575eb65634a
gd1983-09-11beyerm201-24s1t08.flac:74f38938c6f37dcc2699cfac811c27ed
gd1983-09-11beyerm201-24s1t09.flac:60f9c9c1fc399035e0e0b3e7064322b0
gd1983-09-11beyerm201-24s1t10.flac:dd06c2b30060f76194c2ef0543100819
gd1983-09-11beyerm201-24s1t11.flac:477bcb201b7e40d88d03527047881f67
gd1983-09-11beyerm201-24s2t01.flac:03f446fe77e67948511e009784fb7723
gd1983-09-11beyerm201-24s2t02.flac:2d9782c3d521ba3d2cfe108e6660b91f
gd1983-09-11beyerm201-24s2t03.flac:aaf057e1378b2b0a31c5edafe889dd35
gd1983-09-11beyerm201-24s2t04.flac:598b5a76c978ad3097c9abbe15d62670
gd1983-09-11beyerm201-24s2t05.flac:a89bbba9e9c86bc28fd47157c07bd01a
gd1983-09-11beyerm201-24s2t06.flac:0dedae928865ab017f38fb0d01b2d108
gd1983-09-11beyerm201-24s2t07.flac:042553a0c802e5f23050f4f060c50533
gd1983-09-11beyerm201-24s2t08.flac:b66c6265c01a1810d4fcfe400d99d83c
gd1983-09-11beyerm201-24s2t09.flac:a22538931bde06b4f8a62178c8dba8dd
gd1983-09-11beyerm201-24s2t10.flac:7ca15a79b735107bcf0047246e23bb31
gd1983-09-11beyerm201-24s2t11.flac:4fe94e9cbc21c4ab3eecbb83e23fb98e
flac-md5
bdf75018de7d5357d8495c64ff969c55 *gd1983-09-11beyerm201-24s1t01.flac
52b6d8fae09e72740261ad7bb73d98ad *gd1983-09-11beyerm201-24s1t02.flac
4e6205652ab368fd024c4d2e80be49fd *gd1983-09-11beyerm201-24s1t03.flac
6ab98c3e99976462df44040feb7a6dc1 *gd1983-09-11beyerm201-24s1t04.flac
5cd6db3a201afc2a201478e44ab0a98f *gd1983-09-11beyerm201-24s1t05.flac
6370010b0a47c818d1e764ae513c66f6 *gd1983-09-11beyerm201-24s1t06.flac
e88d16585d98ba6f67b8fa456549c833 *gd1983-09-11beyerm201-24s1t07.flac
3c98dc913072241a99aa26d114aaf042 *gd1983-09-11beyerm201-24s1t08.flac
160ea1ed09af2159a800ead3a98d2ff3 *gd1983-09-11beyerm201-24s1t09.flac
ebf79f0e1ff89e6da4a20e3e6cdfaf5b *gd1983-09-11beyerm201-24s1t10.flac
1be78ee630d0111761ad2c76d43e0201 *gd1983-09-11beyerm201-24s1t11.flac
0283a6d9f3fec05c5210eead41d342ff *gd1983-09-11beyerm201-24s2t01.flac
81682197390fd4598af7a29c647fe751 *gd1983-09-11beyerm201-24s2t02.flac
f434dbea3485e572a55fb152091abc22 *gd1983-09-11beyerm201-24s2t03.flac
c10cd126feb8a27e454b296bf115cf97 *gd1983-09-11beyerm201-24s2t04.flac
63a59c144c9c9c8b7614ecc4e95f830f *gd1983-09-11beyerm201-24s2t05.flac
a43e62d6db361ceca8c7e43895df12ad *gd1983-09-11beyerm201-24s2t06.flac
4dd5523c4287be27aae7a36136c8c6c3 *gd1983-09-11beyerm201-24s2t07.flac
f841ef87389e27a10dc1f2a078acab04 *gd1983-09-11beyerm201-24s2t08.flac
8854eeed54bc325320a9acd4b1bbdafd *gd1983-09-11beyerm201-24s2t09.flac
4e8634155500db4ecfdf81e4bdf3e009 *gd1983-09-11beyerm201-24s2t10.flac
bd50f766b7ac9f0c885dbcea88e01167 *gd1983-09-11beyerm201-24s2t11.flac

Comments
Add Comment
Other Sources (comments)
Source: Jeff Silberman's... (1) SBD> Master Cassette> 1... (0) Source: Jeff Silberman's... (1) flac16; Source:... (0) flac16; Source:... (0) SBD-> ?->CD->EAC->WAV->SHN... (1) flac16; source: 2... (0) flac16; 2 Source... (0) flac16; 2 Source... (0) flac24; billydee... (0) flac16; Set 2 Jeff... (0) flac16; billydee... (0) flac16/44.1 ... (0)
Date User Comment