Browse Collections Artists Sources   Search Dates

Add Show    List Management    Help


Grateful Dead 09/13/83
Manor Downs, Austin, TX
Comments Add Comment    Source Collectors    Add to Collection    Add to Want List    History
Source # 143083 Other Sources
Entered by Matt Vernon
Checksums ffp , flac-md5
Disc Counts 0 / 0
Media Size
Date Circulated
Date Added

09/04/2018
Source Summary flac16/44.1 Master: AUD MC Beyer M201's X-Y 6'up > Sony TCD5M no dolby Maxell MX90 x 2 Location: 80 feet from stage DFC Transfer: Nakamichi CR-5A (24/96) > Tascam DR680|SD > i7Windows7 Audacity > cdwav editor > TLH flac level 8 Mastered: Executive Crew Chris Kidwell Tom Pinney Sean Murtha Transferred: Kyle Holbrook 
  Archive
Source Information - Download Text | Download Zip
Grateful Dead
Date 1983-09-13
Manor Downs
Austin TX

Set 1
d1t01 - tuning
d1t02 - Bertha                  /
d1t03 - Little Red Rooster      /
d1t04 - Loser
d1t05 - Cassidy
d1t06 - Don't Ease Me In
d1t07 - My Brother Esau          //
d1t08 - Brown Eyed Women
d1t09 - Music Never Stopped
d1t10 - Might As Well

Set 2
d2t01 - tuning
d2t02 - Scarlet Begonias > Fire on the Mountain
d2t03 - Truckin' >
d2t04 - drums                    //
d2t05 - space >
d2t06 - The Wheel >
d2t07 - Throwin' Stones >
d2t08 - Not Fade Away >
d2t09 - drums &crowd chant
d2t10 - Encore: Brokedown Palace

//        tape flip

Master: AUD MC Beyer M201's X-Y 6'up > Sony TCD5M no dolby
        Maxell MX90 x 2
Location: 80 feet from stage DFC
Transfer: Nakamichi CR-5A (24/96) > Tascam DR680|SD > i7Windows7
          Audacity > cdwav editor > TLH flac level 8
          This is 16 bit copy
Mastered: Executive Crew Chris Kidwell Tom Pinney Sean Murtha
Transferred: Kyle Holbrook
===========================================================================================================================
The tour story:
All metal tapes for this date. Excellent overall tone and bass in this recording, a little bit of audience participation, but not too distracting. The day was hot and the boys seem tired but the Bertha comes out of the gate strong. Jerry's vocals on Loser and Brown Eyed Women are so strong with an emotion behind them which often gets forgotten over time and the passing fancy of the man as a myth or icon. When Jerry sang a tune, especially one of the iconic ballads, he put this energy into the words that was unique and I feel one of the base aspects of his musical persona inside of the Grateful Dead zeitgeist. He felt it, really hung on those words in Stella Blue or Wharf Rat, explored the meanings of the lyric with his intonations and due to the "in the now" nature of the Dead's music often these intonations would be different given the set and setting. Throwing down a "Don't Ease Me In" mid set shows a certain end of the tour attitude and they rock it out with Brent crushing the Hammond B3 solo. Nice harmonies and guitar on Music Never Stopped.

set 2 features some slow versions of the songs, no the tapes weren't slow, the band was wilting in the heat. Every mention of this show on LMA or dead.net mentions the heat. Out of space Jerry delivered a pretty version of Wheel which Phil just kept buoying up with that 6 string. I think the sound crew must have found a different electronic path for Phil's rig by the Red Rocks shows. An unusual six song second set but the Scarlet through Truckin is 38 minutes. Some deadheads on the LMA seem to like this version of Scarlet > Fire. I find myself drawn to this version of Truckin'; about half way through they do a half spoonful, half wang dang lick then Garcia just gets all bluesy with Phil bustin other one hints leading into space (and no Other One!). The space into Wheel is more melting but the tune is delicately laid down by Jerry and Brent atop Phil's anchor.

- - - - - sbe’s at end of sets

    length     expanded size    cdr  WAVE problems  fmt   ratio  filename
     1:40.71       17807036 B   ---   --   ---xx   flac  0.5413  gd1983-09-13beyerm201-16s1t01.flac
     6:43.05       71101004 B   ---   --   ---xx   flac  0.6351  gd1983-09-13beyerm201-16s1t02.flac
     9:37.04      101792252 B   ---   --   ---xx   flac  0.6105  gd1983-09-13beyerm201-16s1t03.flac
     8:03.63       85349420 B   ---   --   ---xx   flac  0.6033  gd1983-09-13beyerm201-16s1t04.flac
     6:08.19       64959932 B   ---   --   ---xx   flac  0.6191  gd1983-09-13beyerm201-16s1t05.flac
     3:30.62       37189868 B   ---   --   ---xx   flac  0.6382  gd1983-09-13beyerm201-16s1t06.flac
     5:36.10       59293964 B   ---   --   ---xx   flac  0.5973  gd1983-09-13beyerm201-16s1t07.flac
     5:55.46       62730236 B   ---   --   ---xx   flac  0.6278  gd1983-09-13beyerm201-16s1t08.flac
     7:09.72       75844988 B   ---   --   ---xx   flac  0.6296  gd1983-09-13beyerm201-16s1t09.flac
     4:26.29       46991540 B   -b-   --   ---xx   flac  0.6595  gd1983-09-13beyerm201-16s1t10.flac
     0:41.59        7371212 B   ---   --   ---xx   flac  0.5195  gd1983-09-13beyerm201-16s2t01.flac
    29:31.29      312472652 B   ---   --   ---xx   flac  0.6336  gd1983-09-13beyerm201-16s2t02.flac
    12:02.42      127459628 B   ---   --   ---xx   flac  0.6399  gd1983-09-13beyerm201-16s2t03.flac
     6:58.65       73888124 B   ---   --   ---xx   flac  0.5874  gd1983-09-13beyerm201-16s2t04.flac
    10:53.56      115320956 B   ---   --   ---xx   flac  0.5498  gd1983-09-13beyerm201-16s2t05.flac
     6:16.58       66462860 B   ---   --   ---xx   flac  0.6107  gd1983-09-13beyerm201-16s2t06.flac
     8:11.39       86704172 B   ---   --   ---xx   flac  0.6281  gd1983-09-13beyerm201-16s2t07.flac
     6:13.24       65853692 B   ---   --   ---xx   flac  0.6389  gd1983-09-13beyerm201-16s2t08.flac
     2:28.45       26213084 B   ---   --   ---xx   flac  0.5503  gd1983-09-13beyerm201-16s2t09.flac
     5:55.54       62749052 B   ---   --   ---xx   flac  0.5998  gd1983-09-13beyerm201-16s2t10.flac
   148:06.27     1567555672 B                            0.6158  (20 files)




Show Checksums
ffp
gd1983-09-13beyerm201-16s1t01.flac:c8599f288ca0bdf4f4987622201207f7
gd1983-09-13beyerm201-16s1t02.flac:c82e73f7ab5b6129152a0061f969e4a9
gd1983-09-13beyerm201-16s1t03.flac:7213e40e94ff8e958f3ebcf5285582ef
gd1983-09-13beyerm201-16s1t04.flac:0fe1ddd49bc3282fda985d21a244ffe2
gd1983-09-13beyerm201-16s1t05.flac:e547bacf518944f2b641a79c4fcd4792
gd1983-09-13beyerm201-16s1t06.flac:486b2490505532c14508a1b62146ccc4
gd1983-09-13beyerm201-16s1t07.flac:61aa4b477e4c7cf684c719b6ca1f6ed5
gd1983-09-13beyerm201-16s1t08.flac:5f432368a8b4a29a8d0458fffafba84a
gd1983-09-13beyerm201-16s1t09.flac:8edc8a2daf625baf27c6319a5acb628b
gd1983-09-13beyerm201-16s1t10.flac:5da4d78c7603e2db5e8605ed092c19fe
gd1983-09-13beyerm201-16s2t01.flac:bd181acc19fc117baa26ba2a70dfd859
gd1983-09-13beyerm201-16s2t02.flac:9d62cb60f78f53fa86b3a531b7bb6da0
gd1983-09-13beyerm201-16s2t03.flac:105379b8d7f2a33141daaf25c4fbd25f
gd1983-09-13beyerm201-16s2t04.flac:28edf98de824dff1340acaffa6b2d6cf
gd1983-09-13beyerm201-16s2t05.flac:20321f642b9ced9f8ba89ac7b7061727
gd1983-09-13beyerm201-16s2t06.flac:38fca1a58debf02c5e9b00f733b7e1df
gd1983-09-13beyerm201-16s2t07.flac:8736582daaacb13473dfc826112e7364
gd1983-09-13beyerm201-16s2t08.flac:2fbb271d0ae0d55a756fe71924b6cf54
gd1983-09-13beyerm201-16s2t09.flac:1dc2048722a8916eba72cb4111c27531
gd1983-09-13beyerm201-16s2t10.flac:5b72837802b46a02c282aff613d7ca10
flac-md5
183d74f02598fec2d91b232220f67123 *gd1983-09-13beyerm201-16s1t01.flac
88ca5e28bd11d5733c2146f6bd2ca3a2 *gd1983-09-13beyerm201-16s1t02.flac
85d6b0da4c2f4a5400204933ea825924 *gd1983-09-13beyerm201-16s1t03.flac
5b29da7330b10c6cb32f3554d9d8754b *gd1983-09-13beyerm201-16s1t04.flac
c0e7c141f17bef2819dc8c7af14ad641 *gd1983-09-13beyerm201-16s1t05.flac
124b5ddb97f127c8b2d8b8268a21e07b *gd1983-09-13beyerm201-16s1t06.flac
3b09eed48f623765ece2d37831368c95 *gd1983-09-13beyerm201-16s1t07.flac
319c3da3436de96b1040ea440b7a49d2 *gd1983-09-13beyerm201-16s1t08.flac
6bfaf0022906fb83593701e88e4d5563 *gd1983-09-13beyerm201-16s1t09.flac
d6b149487a71aa5ca3b8bbaba4f7f667 *gd1983-09-13beyerm201-16s1t10.flac
885ba1dc206b542108ed170958c7e405 *gd1983-09-13beyerm201-16s2t01.flac
d90d963e90771b8f8431bb7759e42ddc *gd1983-09-13beyerm201-16s2t02.flac
6050d8a04f359c97f02a530b32edd28e *gd1983-09-13beyerm201-16s2t03.flac
9c5d84f89b55db731a3339ba204b4596 *gd1983-09-13beyerm201-16s2t04.flac
68e9d2f388d53e4964a12d4c08bb04b2 *gd1983-09-13beyerm201-16s2t05.flac
366a013a2f2ef077c2300aa0d5e714c3 *gd1983-09-13beyerm201-16s2t06.flac
6c477e74123d00ed9c92c9b4c7ee6588 *gd1983-09-13beyerm201-16s2t07.flac
7b86436767b9320b54d50523780eeb32 *gd1983-09-13beyerm201-16s2t08.flac
87780ff82370508db95b8787e9a28454 *gd1983-09-13beyerm201-16s2t09.flac
ae623c535daa46c80d7f0baeb298f423 *gd1983-09-13beyerm201-16s2t10.flac

Comments
Add Comment
Other Sources (comments)
ACM> ??> CDR; EAC>SHN by... (0) flac16; Recording... (2) Recorded by The Weasel -... (0) flac16; Recording... (1) flac24/48 Master:... (0)
Date User Comment