Browse Collections Artists Sources   Search Dates

Add Show    List Management    Help


Grateful Dead 09/13/83
Manor Downs, Austin, TX
Comments Add Comment    Source Collectors    Add to Collection    Add to Want List    History
Source # 143084 Other Sources
Entered by Matt Vernon
Checksums ffp , flac-md5
Disc Counts 0 / 0
Media Size
Date Circulated
Date Added

09/04/2018
Source Summary flac24/48 Master: AUD MC Beyer M201's X-Y 6'up > Sony TCD5M no dolby Maxell MX90 x 2 Location: 80 feet from stage DFC Transfer: Nakamichi CR-5A (24/96) > Tascam DR680|SD > i7Windows7 Audacity > cdwav editor > TLH flac level 8 Mastered: Executive Crew Chris Kidwell Tom Pinney Sean Murtha Transferred: Kyle Holbrook 
  Archive
Source Information - Download Text | Download Zip
Grateful Dead
Date 1983-09-13
Manor Downs
Austin TX

Set 1
d1t01 - tuning
d1t02 - Bertha                  /
d1t03 - Little Red Rooster      /
d1t04 - Loser
d1t05 - Cassidy
d1t06 - Don't Ease Me In
d1t07 - My Brother Esau          //
d1t08 - Brown Eyed Women
d1t09 - Music Never Stopped
d1t10 - Might As Well

Set 2
d2t01 - tuning
d2t02 - Scarlet Begonias > Fire on the Mountain
d2t03 - Truckin' >
d2t04 - drums                    //
d2t05 - space >
d2t06 - The Wheel >
d2t07 - Throwin' Stones >
d2t08 - Not Fade Away >
d2t09 - drums &crowd chant
d2t10 - Encore: Brokedown Palace

//        tape flip

Master: AUD MC Beyer M201's X-Y 6'up > Sony TCD5M no dolby
        Maxell MX90 x 2
Location: 80 feet from stage DFC
Transfer: Nakamichi CR-5A (24/96) > Tascam DR680|SD > i7Windows7
          Audacity > cdwav editor > TLH flac level 8
          This is 24 bit copy
Mastered: Executive Crew Chris Kidwell Tom Pinney Sean Murtha
Transferred: Kyle Holbrook
===========================================================================================================================
The tour story:
All metal tapes for this date. Excellent overall tone and bass in this recording, a little bit of audience participation, but not too distracting. The day was hot and the boys seem tired but the Bertha comes out of the gate strong. Jerry's vocals on Loser and Brown Eyed Women are so strong with an emotion behind them which often gets forgotten over time and the passing fancy of the man as a myth or icon. When Jerry sang a tune, especially one of the iconic ballads, he put this energy into the words that was unique and I feel one of the base aspects of his musical persona inside of the Grateful Dead zeitgeist. He felt it, really hung on those words in Stella Blue or Wharf Rat, explored the meanings of the lyric with his intonations and due to the "in the now" nature of the Dead's music often these intonations would be different given the set and setting. Throwing down a "Don't Ease Me In" mid set shows a certain end of the tour attitude and they rock it out with Brent crushing the Hammond B3 solo. Nice harmonies and guitar on Music Never Stopped.

set 2 features some slow versions of the songs, no the tapes weren't slow, the band was wilting in the heat. Every mention of this show on LMA or dead.net mentions the heat. Out of space Jerry delivered a pretty version of Wheel which Phil just kept buoying up with that 6 string. I think the sound crew must have found a different electronic path for Phil's rig by the Red Rocks shows. An unusual six song second set but the Scarlet through Truckin is 38 minutes. Some deadheads on the LMA seem to like this version of Scarlet > Fire. I find myself drawn to this version of Truckin'; about half way through they do a half spoonful, half wang dang lick then Garcia just gets all bluesy with Phil bustin other one hints leading into space (and no Other One!). The space into Wheel is more melting but the tune is delicately laid down by Jerry and Brent atop Phil's anchor.

- - - -

    length     expanded size    cdr  WAVE problems  fmt   ratio  filename
     1:40.947      29072684 B   cxx   --   ---xx   flac  0.6933  gd1983-09-13beyerm201-24s1t01.flac
     6:43.067     116083244 B   cxx   --   ---xx   flac  0.7511  gd1983-09-13beyerm201-24s1t02.flac
     9:37.053     166191404 B   cxx   --   ---xx   flac  0.7361  gd1983-09-13beyerm201-24s1t03.flac
     8:03.840     139345964 B   cxx   --   ---xx   flac  0.7318  gd1983-09-13beyerm201-24s1t04.flac
     6:08.253     106057004 B   cxx   --   ---xx   flac  0.7416  gd1983-09-13beyerm201-24s1t05.flac
     3:30.827      60718124 B   cxx   --   ---xx   flac  0.7534  gd1983-09-13beyerm201-24s1t06.flac
     5:36.133      96806444 B   cxx   --   ---xx   flac  0.7282  gd1983-09-13beyerm201-24s1t07.flac
     5:55.613     102416684 B   cxx   --   ---xx   flac  0.7470  gd1983-09-13beyerm201-24s1t08.flac
     7:09.960     123828524 B   cxx   --   ---xx   flac  0.7481  gd1983-09-13beyerm201-24s1t09.flac
     4:26.392      76720856 B   cxx   --   ---xx   flac  0.7665  gd1983-09-13beyerm201-24s1t10.flac
     0:41.787      12034604 B   cxx   --   ---xx   flac  0.6800  gd1983-09-13beyerm201-24s2t01.flac
    29:31.387     510159404 B   cxx   --   ---xx   flac  0.7506  gd1983-09-13beyerm201-24s2t02.flac
    12:02.560     208097324 B   cxx   --   ---xx   flac  0.7548  gd1983-09-13beyerm201-24s2t03.flac
     6:58.867     120633644 B   cxx   --   ---xx   flac  0.7223  gd1983-09-13beyerm201-24s2t04.flac
    10:53.747     188279084 B   cxx   --   ---xx   flac  0.6994  gd1983-09-13beyerm201-24s2t05.flac
     6:16.773     108510764 B   cxx   --   ---xx   flac  0.7367  gd1983-09-13beyerm201-24s2t06.flac
     8:11.520     141557804 B   cxx   --   ---xx   flac  0.7473  gd1983-09-13beyerm201-24s2t07.flac
     6:13.320     107516204 B   cxx   --   ---xx   flac  0.7540  gd1983-09-13beyerm201-24s2t08.flac
     2:28.600      42796844 B   cxx   --   ---xx   flac  0.6994  gd1983-09-13beyerm201-24s2t09.flac
     5:55.720     102447404 B   cxx   --   ---xx   flac  0.7299  gd1983-09-13beyerm201-24s2t10.flac
   148:06.365    2559274012 B                            0.7397  (20 files)




Show Checksums
ffp
gd1983-09-13beyerm201-24s1t01.flac:b4f6d10e76f809ee7fc6014f9cfe305f
gd1983-09-13beyerm201-24s1t02.flac:f6bdffdd9043d2dbff7c2e121d9a8c29
gd1983-09-13beyerm201-24s1t03.flac:20a1fcd2c0b451d2158163f03ead0d4d
gd1983-09-13beyerm201-24s1t04.flac:9756db98e082dd3c3c5eace44ba339f1
gd1983-09-13beyerm201-24s1t05.flac:ff883a37beb076112007658b075fb78a
gd1983-09-13beyerm201-24s1t06.flac:ec5c8f814b83fffbd8e5af94aaaca4a2
gd1983-09-13beyerm201-24s1t07.flac:e5643dd2581b04a8c9306a8a042156f9
gd1983-09-13beyerm201-24s1t08.flac:cf23587350236fbb449156ee5c564296
gd1983-09-13beyerm201-24s1t09.flac:02df58ddd8779a9dcb87d6991cea511a
gd1983-09-13beyerm201-24s1t10.flac:f8517246e56374cbbb7723f288bb6dab
gd1983-09-13beyerm201-24s2t01.flac:b6fdb52b0b1433d2f3e74adea5c8209f
gd1983-09-13beyerm201-24s2t02.flac:68350f645bd410af5702fa39138284f2
gd1983-09-13beyerm201-24s2t03.flac:2741d975b4668d3a06665fe5f1280641
gd1983-09-13beyerm201-24s2t04.flac:e44eda916d5f2dfe8f9572eccc5e998d
gd1983-09-13beyerm201-24s2t05.flac:a5bb0b422cc5754992f85fdb6749309d
gd1983-09-13beyerm201-24s2t06.flac:dd6a24affeb5cb70858f1dae8ae72807
gd1983-09-13beyerm201-24s2t07.flac:4d2a7ac1cc6da650d94fdc7d847d1187
gd1983-09-13beyerm201-24s2t08.flac:b15523fc9c40d6f5412eae7171bc8e29
gd1983-09-13beyerm201-24s2t09.flac:d4e30676a84b4bebd093fe41e663ec5b
gd1983-09-13beyerm201-24s2t10.flac:c9bc1cd8050dfba7dd72149e2bc06fa7
flac-md5
4ba8a7b382100fe5fb945c4db47f559b *gd1983-09-13beyerm201-24s1t01.flac
38697c150fdc2e3cbff0b6f0a0c419ab *gd1983-09-13beyerm201-24s1t02.flac
b85d69cbadc676a70c14b8380617826a *gd1983-09-13beyerm201-24s1t03.flac
872cda236fb1eb9fd3b5730e5647b24f *gd1983-09-13beyerm201-24s1t04.flac
d00e21f44b3b5b987efaf62b27e165dd *gd1983-09-13beyerm201-24s1t05.flac
d937df1ba7d4c478d6e9b0b57d2e7019 *gd1983-09-13beyerm201-24s1t06.flac
4a63e23d9a8293d9aea9ecc35771add0 *gd1983-09-13beyerm201-24s1t07.flac
7c3cc2777ca54d2b55f53d9c89b62cd3 *gd1983-09-13beyerm201-24s1t08.flac
5ccb57a958338e93bd2b126af527d094 *gd1983-09-13beyerm201-24s1t09.flac
1072622c0bb1d99d633aa4f231da7858 *gd1983-09-13beyerm201-24s1t10.flac
805ec62bbc4652df5eb9cf802e0cebd3 *gd1983-09-13beyerm201-24s2t01.flac
b011e955babb4a1e2ed3bf5db71db96b *gd1983-09-13beyerm201-24s2t02.flac
c4fddb94a8b89098271cfe9015436604 *gd1983-09-13beyerm201-24s2t03.flac
e624cae3778326332d44cc46b31afc14 *gd1983-09-13beyerm201-24s2t04.flac
37e927e735d09ac0956c331c6c3e5f79 *gd1983-09-13beyerm201-24s2t05.flac
007815ca7c9c79486b03a9b97fe11685 *gd1983-09-13beyerm201-24s2t06.flac
95b8b646fdedf3c4e43aa3d8c235ed0b *gd1983-09-13beyerm201-24s2t07.flac
1666d8e8a0e89cd5cad31314a4297f74 *gd1983-09-13beyerm201-24s2t08.flac
314777522538b85c4df42f376ae5d0f4 *gd1983-09-13beyerm201-24s2t09.flac
9e8f2fb9689bcced040460b5d8b19e06 *gd1983-09-13beyerm201-24s2t10.flac

Comments
Add Comment
Other Sources (comments)
ACM> ??> CDR; EAC>SHN by... (0) flac16; Recording... (2) Recorded by The Weasel -... (0) flac16; Recording... (1) flac16/44.1 Master:... (0)
Date User Comment