Browse Collections Artists Sources   Search Dates

Add Show    List Management    Help


Grateful Dead 09/21/73
The Spectrum, Philadelphia, PA
Comments Add Comment    Source Collectors    Add to Collection    Add to Want List    History
Source # 143101 Other Sources
Entered by Gary Field
Checksums ffp , flac-md5
Disc Counts 0 / 0
Media Size
Uncompressed: 5.87 GB (6298353696 bytes)
Date Circulated
Date Added
09/11/2018
09/11/2018
Source Summary flac24; Source: Most likely MR > R @3 & 3/4 ips - dub of Jerry's reel left at a girlfriend's house done by Will Boswell back in the Spring of '79; Transfer: Reel > Technics RS1506 > Tascam DA3000 (1 bit DSD) > dB poweramp > wav 24/96 - Transferred by Matt Smith; Lineage: wav 24/96 > Adobe Audition 3 > iZotope RX6 Advanced > iZotope Ozone 5 Advanced > CD Wave > Flac 2; edited and mastered SIRMick September 2018 
Source Information - Download Text | Download Zip
Grateful Dead
The Spectrum
Philadelphia, PA
09/21/1973


Source: Most likely MR > R @3 & 3/4 ips - dub of Jerry's reel left at a girlfriend's house done by Will Boswell back in the Spring of '79
Transfer: Reel > Technics RS1506 > Tascam DA3000 (1 bit DSD) > dB poweramp > wav 24/96 - Transferred by Matt Smith
Lineage: wav 24/96 > Adobe Audition 3 > iZotope RX6 Advanced > iZotope Ozone 5 Advanced > CD Wave > Flac 24


Set I

01   tuning
02   Big Railroad Blues
03   Me And My Uncle
04   Brown Eyed Women
05   Beat It On Down The Line
06   Sugaree//
07   //Big River
08   tech problem
09   Here Comes Sunshine
10   El Paso
11   Loose Lucy
12   Jack Straw
13   Black Peter
14   Playing In The//Band


Set II

01   tuning
02   He's Gone >
03   Truckin' >
04   The Other One >
05   Wharf Rat >
06   Row Jimmy
07   Let Me Sing Your Blues Away
08   Weather Report Suite
        Prelude >
        Part 1 >
        Part II (Let It Grow)
09   One More Saturday Night

encore

10   Casey//Jones



Comments:

Joe Ellis on trumpet and Martin Fierro on saxophone "Let Me Sing Your Blues Away" > "Casey Jones"



Notes:

- Gap in "TOO" closed. Probably a reel flip, unknown amount missing.
- Gap in "Let Me Sing Your Blues Away" closed.
- I removed some distortion and made a few other minor repairs.


Thanks to Joe B. Jones for his help with pitch correction.

Thanks to Will Boswell for providing the reels.

Thanks to Matt Smith for another wonderful transfer.


edited and mastered
SIRMick
September 2018


shntool output:

    length     expanded size    cdr  WAVE problems  fmt   ratio  filename
     1:14.587      42961964 B   cxx   --   ---xx   flac  0.6068  gd1973-09-21s1t01.flac
     5:27.547     188666924 B   cxx   --   ---xx   flac  0.6277  gd1973-09-21s1t02.flac
     4:06.533     142003244 B   cxx   --   ---xx   flac  0.6405  gd1973-09-21s1t03.flac
     6:19.400     218534444 B   cxx   --   ---xx   flac  0.6237  gd1973-09-21s1t04.flac
     4:22.387     151134764 B   cxx   --   ---xx   flac  0.6140  gd1973-09-21s1t05.flac
     3:28.493     120092204 B   cxx   --   ---xx   flac  0.6228  gd1973-09-21s1t06.flac
     3:20.840     115683884 B   cxx   --   ---xx   flac  0.6106  gd1973-09-21s1t07.flac
     1:48.013      62215724 B   cxx   --   ---xx   flac  0.5830  gd1973-09-21s1t08.flac
    12:40.907     438282284 B   cxx   --   ---xx   flac  0.6070  gd1973-09-21s1t09.flac
     5:56.627     205417004 B   cxx   --   ---xx   flac  0.6082  gd1973-09-21s1t10.flac
     7:42.733     266534444 B   cxx   --   ---xx   flac  0.6149  gd1973-09-21s1t11.flac
     5:02.840     174435884 B   cxx   --   ---xx   flac  0.6246  gd1973-09-21s1t12.flac
    10:46.347     372295724 B   cxx   --   ---xx   flac  0.6114  gd1973-09-21s1t13.flac
    16:19.800     564364844 B   cxx   --   ---xx   flac  0.6134  gd1973-09-21s1t14.flac
     1:57.680      67783724 B   cxx   --   ---xx   flac  0.5988  gd1973-09-21s2t01.flac
    13:57.840     482595884 B   cxx   --   ---xx   flac  0.6163  gd1973-09-21s2t02.flac
     7:43.480     266964524 B   cxx   --   ---xx   flac  0.6217  gd1973-09-21s2t03.flac
    15:04.733     521126444 B   cxx   --   ---xx   flac  0.6323  gd1973-09-21s2t04.flac
     8:53.907     307530284 B   cxx   --   ---xx   flac  0.6275  gd1973-09-21s2t05.flac
    10:32.027     364047404 B   cxx   --   ---xx   flac  0.6230  gd1973-09-21s2t06.flac
     5:34.227     192514604 B   cxx   --   ---xx   flac  0.6140  gd1973-09-21s2t07.flac
    19:39.147     679188524 B   cxx   --   ---xx   flac  0.6133  gd1973-09-21s2t08.flac
     5:08.720     177822764 B   cxx   --   ---xx   flac  0.6180  gd1973-09-21s2t09.flac
     5:05.827     176156204 B   cxx   --   ---xx   flac  0.6100  gd1973-09-21s2t10.flac
   182:14.640    6298353696 B                            0.6175  (24 files)

Show Checksums
ffp
gd1973-09-21s1t01.flac:2cc2b176542263f4d18c1c2fc71a0e59
gd1973-09-21s1t02.flac:fda5f3a7635a11d53e69aff9c77d60e6
gd1973-09-21s1t03.flac:d010b8cf5ce4f230f17f5da812664259
gd1973-09-21s1t04.flac:133a3db629f6b36dd5acc672fc0765c5
gd1973-09-21s1t05.flac:b63ff42061468f610037fdc0ca064c25
gd1973-09-21s1t06.flac:e4cf10a972ae22b21e93c0c9d33802bb
gd1973-09-21s1t07.flac:5679b899d0bb53a51a7133ab775ff799
gd1973-09-21s1t08.flac:77f12e258f9d391cbc34bd63da2dc267
gd1973-09-21s1t09.flac:8e162d4b7c1aeafeec33e9dce63b046c
gd1973-09-21s1t10.flac:50b42d4fa435568b0b31352579cbde6a
gd1973-09-21s1t11.flac:90a44cab76b3d8980a862604eaa4a3de
gd1973-09-21s1t12.flac:84d28ab75fb35f94ff18007dca01efcd
gd1973-09-21s1t13.flac:6ab9be59121a1f1399af0e6b1e790f90
gd1973-09-21s1t14.flac:ec7ea9bb12231e122c2369d8fe6756f6
gd1973-09-21s2t01.flac:062529f57fe67fa348e9a0570ae0d30f
gd1973-09-21s2t02.flac:b11df886de08bfa63fec1423955bffa5
gd1973-09-21s2t03.flac:c7bfc9aa7702aa497a6145da15c6e71f
gd1973-09-21s2t04.flac:fe72e55eb0e41c8f53e38a46b29ec018
gd1973-09-21s2t05.flac:2bebaf0e70a10cca0836616b69027db5
gd1973-09-21s2t06.flac:2a392610e694416eb11ef53a37055efd
gd1973-09-21s2t07.flac:a8156fb0c999d2c2c1ed77ba090042ca
gd1973-09-21s2t08.flac:6be667f818e1a6173df3e841d7eadd55
gd1973-09-21s2t09.flac:dc87a8120a87e8854d35966a0f8bfbe2
gd1973-09-21s2t10.flac:87cbd38e1237a3b72b0b5c484a10d3ef
flac-md5
238c34541c28e8fa3dea83afdc744797 *gd1973-09-21s1t01.flac
70bae29f3ab0544dc5f9875fe87edbaa *gd1973-09-21s1t02.flac
370847c1262111f36b21698be623d197 *gd1973-09-21s1t03.flac
2af7e5a32af1dd5cdaa9a752e27b27fd *gd1973-09-21s1t04.flac
a029189caaa2b436e2aa59626fed8d91 *gd1973-09-21s1t05.flac
2a2cc1bc6cd81d0f01acaa391097e807 *gd1973-09-21s1t06.flac
d9a81e594cdc6be7869013acde8793fd *gd1973-09-21s1t07.flac
80d910e2f93342e3d1bc286f70ae5a14 *gd1973-09-21s1t08.flac
19cbc364797e1e58d793b1e53a5d96c0 *gd1973-09-21s1t09.flac
fa44ba39577a1679081009b6f4a5c67e *gd1973-09-21s1t10.flac
1b9851586b6d4209ffd612a53941dfb7 *gd1973-09-21s1t11.flac
2a651e58ad48e1789b05db05173169ff *gd1973-09-21s1t12.flac
bfe0407c68186de4cd806b5a3b05f487 *gd1973-09-21s1t13.flac
63330d8dc51582326b936142ab23303e *gd1973-09-21s1t14.flac
2c06d30ea1bbd7e7af261cc7a1277ae2 *gd1973-09-21s2t01.flac
7767ef38524fc7dd4a240e5eee0aa8a5 *gd1973-09-21s2t02.flac
4c6590b2ca61c5415d0cba74e850a6ca *gd1973-09-21s2t03.flac
8e479df14494d478ae6c8d07b0bec9cc *gd1973-09-21s2t04.flac
89e1bea79f977269768a5b498b56a9c5 *gd1973-09-21s2t05.flac
d27ba6279f6a98b831526deab14223f2 *gd1973-09-21s2t06.flac
7e1841b3b4a7f41b1f45f6bae8b9b18d *gd1973-09-21s2t07.flac
d6edb5bdf0e2b464aa09dc0208ccfc1d *gd1973-09-21s2t08.flac
928399ec4a76614f477b12db5c652c9d *gd1973-09-21s2t09.flac
2dee7dd852e21404bb7163d650346fd6 *gd1973-09-21s2t10.flac

Comments
Add Comment
Other Sources (comments)
SBD; via Mike Lai from... (2) SBD -> Rm -> Reel -> PCM ->... (1) flac16; analog>cd... (1) flac24; Lineage is... (0) flac16; Lineage is... (0)
Date User Comment