Browse Collections Artists Sources   Search Dates

Add Show    List Management    Help


Grateful Dead 05/14/83
Greek Theatre, U. Of California, Berkeley, CA
Comments Add Comment    Source Collectors    Add to Collection    Add to Want List    History
Source # 18225 Other Sources
Entered by dr.unclear
Checksums shn-md5 , st5
Disc Counts 2 / 3
Media Size
Date Circulated
Date Added
07/03/2003
07/04/2003
Source Summary FOB Sennheiser 421s>Sony PCM F-1>DAT>CDR>EAC(secure)>SHN seed provided by jim powell. EAC>SHN by j.barnes ([email protected]) see notes for patch information. 
  Archive
Source Information - Download Text | Download Zip
grateful dead
date - 5-14-83
greek theater, berkely, ca

source: FOB Sennheiser 421s>Sony PCM F-1>DAT>CDR>EAC(secure)>SHN
seed provided by jim powell.  
EAC>SHN by j.barnes ([email protected])
see notes for patch information.

set one
disc 1:
1. tuning
2. feel like a stranger
3. friend of the devil
4. me and my uncle->
5. mexicali blues
6. tennessee jed
7. my brother esau
8. bertha

set two
disc 2:
1. tuning/crowd
2. shakedown street
3. playing in the band->
4. china doll->
5. jam->
6. drums->

set two (cont.)
disc 3:
7. space->
8. the wheel->
9. playing in the band->
10. morning dew->
11. sugar magnolia

e:
12. one more saturday night

notes from jim powell:
- Dave Kramer & Matt Field FOB MAP > D > CD  
- 3 Sennheiser 421s > Sony PCM F-1.  
- We fixed a couple minor glitches in the Playin on second disc using  Rango's FOB MAC.

    length     expanded size   cdr  WAVE problems filename    
     1:51.07       19596908    ---   --   ---xx   gd1983-05-14d1t01.shn    
     9:08.24       96723692    ---   --   ---xx   gd1983-05-14d1t02.shn    
    10:36.04      112199852    ---   --   ---xx   gd1983-05-14d1t03.shn
     3:31.65       37373324    ---   --   ---xx   gd1983-05-14d1t04.shn
     6:23.09       67582412    ---   --   ---xx   gd1983-05-14d1t05.shn
     9:28.29      100263452    ---   --   ---xx   gd1983-05-14d1t06.shn
     5:27.57       57816908    ---   --   ---xx   gd1983-05-14d1t07.shn
     6:17.37       66589868    ---   --   ---xx   gd1983-05-14d1t08.shn
     1:20.00       14112044    ---   --   ---xx   gd1983-05-14d2t01.shn
    12:44.70      134934284    ---   --   ---xx   gd1983-05-14d2t02.shn
    12:29.74      132297692    ---   --   ---xx   gd1983-05-14d2t03.shn
     4:53.17       51725228    ---   --   ---xx   gd1983-05-14d2t04.shn
     6:25.00       67914044    ---   --   ---xx   gd1983-05-14d2t05.shn
     6:04.65       64362524    ---   --   ---xx   gd1983-05-14d2t06.shn
     6:58.27       73798748    ---   --   ---xx   gd1983-05-14d3t01.shn
     5:05.56       53933756    ---   --   ---xx   gd1983-05-14d3t02.shn
     5:49.52       61685948    ---   --   ---xx   gd1983-05-14d3t03.shn
    10:04.20      106592684    ---   --   ---xx   gd1983-05-14d3t04.shn
    10:35.15      112049324    ---   --   ---xx   gd1983-05-14d3t05.shn
     6:40.27       70623548    ---   --   ---xx   gd1983-05-14d3t06.shn
   141:55.55     1502176240 B                     (totals for 20 files, 0.5833 overall compression ratio)
Show Checksums
shn-md5
28d8db287c0a67c4315a9f4eb07c5554 *gd1983-05-14d1t01.shn
c82568878f4a46655dcbb84730093ad1 *gd1983-05-14d1t02.shn
353a7cb37d0ce1260a06f2d6692e8ac6 *gd1983-05-14d1t03.shn
dee36a932a17db9ef433e8c2b0585ab2 *gd1983-05-14d1t04.shn
e571be1f10bf5513926dc08d0595910c *gd1983-05-14d1t05.shn
3c60638be8ac4921f88ab3e266c0a70c *gd1983-05-14d1t06.shn
288a5fc2fd0fc8cc69a0edc566cbafb6 *gd1983-05-14d1t07.shn
fc2094f019af0a1c9f8e11e7d06837c0 *gd1983-05-14d1t08.shn
7e7f02bd6ddd2e417921e294c3194160 *gd1983-05-14d2t01.shn
b63931acbaa2204a741638adcbfaa750 *gd1983-05-14d2t02.shn
005d99bb30aba375ee7411aac8ea734d *gd1983-05-14d2t03.shn
af74d7faf2d43337e832d3d23316a9cf *gd1983-05-14d2t04.shn
ad68583d067ca0992292efeeac94c1a7 *gd1983-05-14d2t05.shn
18456cca2b95d5a8a179f6d120a94838 *gd1983-05-14d2t06.shn
edd01646ad5159c8b4f64199557b6984 *gd1983-05-14d3t01.shn
3dc5e29b9be2e48ed5ab2d85d7d58ead *gd1983-05-14d3t02.shn
d170ab75d86e90c8f5f07b72f8706999 *gd1983-05-14d3t03.shn
ebb593a904f048606d15d0232eac72e2 *gd1983-05-14d3t04.shn
3e7fbd606e0dbcf5be844cbdfd70798b *gd1983-05-14d3t05.shn
ab040e5eec5a1b0a808c87090bf39593 *gd1983-05-14d3t06.shn
st5
bb5818e21bf0868bc6a943edbda2f201 [shntool] gd1983-05-14d1t01.shn
5378c2b27d923e8d0cf0047d685d8724 [shntool] gd1983-05-14d1t02.shn
b3bc734a3054b9ccce4294b97b0b8e0b [shntool] gd1983-05-14d1t03.shn
db64e200aaa517e1ee6dede59c12a029 [shntool] gd1983-05-14d1t04.shn
a053638979ba742ad3fa2565002ed703 [shntool] gd1983-05-14d1t05.shn
2df44ae8f044db6d76f3c03b81530a0c [shntool] gd1983-05-14d1t06.shn
7586a9feb11342ca661db0836627be5a [shntool] gd1983-05-14d1t07.shn
ee6473ebfbf7673f7cc34c40c05dd99f [shntool] gd1983-05-14d1t08.shn
c64989edc5fe945270a77c371378bd5b [shntool] gd1983-05-14d2t01.shn
a4da49f26b929fbc93d78d95e43eb90a [shntool] gd1983-05-14d2t02.shn
b14c49546a9e660f5ac8fb2cb22aeef6 [shntool] gd1983-05-14d2t03.shn
c64019fb717a47e8cb01f99ad6b89464 [shntool] gd1983-05-14d2t04.shn
4ca1a3d1aee174e0614d2bae05bf1fb7 [shntool] gd1983-05-14d2t05.shn
72bf7020f6bf03703ce27303577e5234 [shntool] gd1983-05-14d2t06.shn
67a2919218a38dabe935467b7cdea527 [shntool] gd1983-05-14d3t01.shn
1cedaae5c517da18bf9651aa77f7a625 [shntool] gd1983-05-14d3t02.shn
55eeb3a504d58f5e8b6fa679f0adc977 [shntool] gd1983-05-14d3t03.shn
447179490a356fc241f6d05fbbe3cd9b [shntool] gd1983-05-14d3t04.shn
3c69ed895c4366d85de93c98be4d7552 [shntool] gd1983-05-14d3t05.shn
64b2783d2657ea418ace952469024551 [shntool] gd1983-05-14d3t06.shn

Comments
Add Comment
Other Sources (comments)
FOB: 3 Sennheiser 421's >... (1) FOB: Sennheiser 421's >... (0) *Set 1 Only*
...
(1) flac16; Master:... (0) flac16; Set 1 only,... (0) flac16; Recording... (0) flac16; Recording... (0) flac16; Source:... (0) Source: Audience recording... (1) flac16/48kHz;... (1) flac24/48 Master:... (0) flac16/44.1 ... (0)
Date User Comment