Browse Collections Artists Sources   Search Dates

Add Show    List Management    Help


Grateful Dead 04/22/83
Veterans' Memorial Coliseum, New Haven, CT
Comments Add Comment    Source Collectors    Add to Collection    Add to Want List    History
Source # 21442 Other Sources
Entered by dr.unclear
Checksums shn-md5 , st5
Disc Counts 2 / 3
Media Size
Date Circulated
Date Added

01/04/2004
Source Summary Barry Glassberg FOB AUDMC w/Nak 700s > Sony TC-D5 > DAT > CDR 
  Archive
Source Information - Download Text | Download Zip
VENUE New Haven Coliseum
CITY New Haven
STATE CT
DATE 04/22/83

Source:  Barry Glassberg F.O.B. AUDMC w/Nak 700s > Sony TC-D5 > DAT > CDR Sec 9F,  Row 17,  Seat 12


SET1
00. crowd/tuning
01. Feel Like A Stranger
02. Bird Song ->
03. C C Rider
04. Row Jimmy
05. Mama Tried ->
06. Mexicali Blues
07. Cold Rain And Snow
08. My Brother Esau ->
09. Deal
SET2
00. crowd/tuning
01. Help On The Way ->
02. Slipknot! ->
03. Franklin's Tower ->
04. Samson And Delilah
05. Ship Of Fools ->
06. Man Smart (Woman Smarter) ->
07. Space ->
08. Drums ->
09. Space ->
10. Space ->
11. Space ->
12. Truckin' ->
13. Spoonful ->
14. Stella Blue ->
15. Around And Around ->
16. Good Lovin'
ENCORE
17. It's All Over Now, Baby Blue


    length     expanded size   cdr  WAVE problems filename
     2:33.05       27001004    ---   --   ---xx   gd1983-04-22d1t01.shn
     9:24.33       99567260    ---   --   ---xx   gd1983-04-22d1t02.shn
    11:12.19      118585532    ---   --   ---xx   gd1983-04-22d1t03.shn
     8:47.20       93009884    ---   --   ---xx   gd1983-04-22d1t04.shn
    10:35.30      112084604    ---   --   ---xx   gd1983-04-22d1t05.shn
     3:24.59       36124412    ---   --   ---xx   gd1983-04-22d1t06.shn
     5:21.06       56638556    ---   --   ---xx   gd1983-04-22d1t07.shn
     6:37.47       70141388    ---   --   ---xx   gd1983-04-22d1t08.shn
     5:55.29       62690252    ---   --   ---xx   gd1983-04-22d1t09.shn
     9:26.74      100016492    ---   --   ---xx   gd1983-04-22d1t10.shn
     0:50.38        8909420    ---   --   ---xx   gd1983-04-22d2t01.shn
     3:33.10       37596764    ---   --   ---xx   gd1983-04-22d2t02.shn
     5:13.13       55243820    ---   --   ---xx   gd1983-04-22d2t03.shn
    11:46.67      124696028    ---   --   ---xx   gd1983-04-22d2t04.shn
     8:51.74       93842492    ---   --   ---xx   gd1983-04-22d2t05.shn
     7:14.51       76677596    ---   --   ---xx   gd1983-04-22d2t06.shn
     6:49.64       72298172    ---   --   ---xx   gd1983-04-22d2t07.shn
     5:09.65       54660524    ---   --   ---xx   gd1983-04-22d2t08.shn
     6:04.11       64235516    ---   --   ---xx   gd1983-04-22d2t09.shn
     0:23.50        4174844    ---   --   ---xx   gd1983-04-22d3t01.shn
    13:43.63      145325420    ---   --   ---xx   gd1983-04-22d3t02.shn
     6:08.45       65021084    ---   --   ---xx   gd1983-04-22d3t03.shn
     2:52.64       30491372    ---   --   ---xx   gd1983-04-22d3t04.shn
     9:28.43      100296380    ---   --   ---xx   gd1983-04-22d3t05.shn
     3:47.61       40186316    ---   --   ---xx   gd1983-04-22d3t06.shn
     9:07.53       96615500    ---   --   ---xx   gd1983-04-22d3t07.shn
     7:27.49       78966092    ---   --   ---xx   gd1983-04-22d3t08.shn
   181:53.18     1925096724 B                     (totals for 27 files, 0.6069 overall compression ratio)

Show Checksums
shn-md5
85ad992b7b6f643fc4a99050d08f1202 *gd1983-04-22d1t10.shn
756ccdae76e575c58807dabb3e2294bc *gd1983-04-22d1t02.shn
b5b306bce6283251ccb32fbe265be0e1 *gd1983-04-22d1t03.shn
f7bf9a6c111f2918758a42bc41d95bfb *gd1983-04-22d1t04.shn
26ca12fec06238d9a55f69be696bf1c9 *gd1983-04-22d1t05.shn
dacabedb1cc9a8038d4958d8d572175b *gd1983-04-22d1t06.shn
236bc831623c777fff06b3d2e8cb9b77 *gd1983-04-22d1t07.shn
9564d3ce5ac4015049a103caf9ef3afa *gd1983-04-22d1t08.shn
aaa2b4061db723f4efc97610296b2fbd *gd1983-04-22d1t09.shn
b8114181eb20a6170b233815c6f9e962 *gd1983-04-22d1t01.shn
50410917545e8b6b3ccc5c43a749325d *gd1983-04-22d2t09.shn
6cc682efc0092835f4fc56f2fe44c92e *gd1983-04-22d2t02.shn
877413d3fe881c8865efb38b7c65ce61 *gd1983-04-22d2t03.shn
b0114b019ef22c0a8753513082e97f34 *gd1983-04-22d2t04.shn
7e0db94a573f1e0154d6899fb034fcb1 *gd1983-04-22d2t05.shn
21dc7e07ec0763d4beb9c7fdfe89bba3 *gd1983-04-22d2t06.shn
bfa1a5ec4448baf6e18d7c7c1bc9141e *gd1983-04-22d2t07.shn
3de8034012470f14b7ce7bd2668f5f1e *gd1983-04-22d2t08.shn
aa6a2d3480254e50ee18f56427b80fe5 *gd1983-04-22d2t01.shn
3163361d9eaa6cd966ca1d49e81421f9 *gd1983-04-22d3t08.shn
037fd47696b303342753d0ac835bdc42 *gd1983-04-22d3t02.shn
3a889d215dfe1205f5ecb3c573d56a6e *gd1983-04-22d3t03.shn
d7bc71b991d448724f1d64694ee29f80 *gd1983-04-22d3t04.shn
a3151cdf28c7fad7fa49ab12b4d475b6 *gd1983-04-22d3t05.shn
aedd68bc07ad96aa0312a990ddabe7b5 *gd1983-04-22d3t06.shn
1acebcc37dd520bc17a5dbbfe49f61fd *gd1983-04-22d3t07.shn
bd55654fac1b7b0f0b0375b729cb41f4 *gd1983-04-22d3t01.shn
st5
75e6c2e16e8e378c576f64351de8569c [shntool] gd1983-04-22d1t01.shn
7d7f8c6100454f9d803f7b8f880f6540 [shntool] gd1983-04-22d1t02.shn
977c5294eb1b55a55275e364d233b269 [shntool] gd1983-04-22d1t03.shn
cc60c71c75ed6a8e0944afbb3ae3a785 [shntool] gd1983-04-22d1t04.shn
791cb0924a39f2903dfb3d248e522838 [shntool] gd1983-04-22d1t05.shn
c8ad659269a773c6c4cad7d6611e1178 [shntool] gd1983-04-22d1t06.shn
e518d03c54f57c4d6d441fa26d10797f [shntool] gd1983-04-22d1t07.shn
07bda0cacc74f0819367a0189dac9f7f [shntool] gd1983-04-22d1t08.shn
a05739cfc7febbd9aff89804c91378c8 [shntool] gd1983-04-22d1t09.shn
7461bb1190e23eb6c30079ca1bbb8de2 [shntool] gd1983-04-22d1t10.shn
133b1ac47a43d3a421337c6e2852627d [shntool] gd1983-04-22d2t01.shn
3348a851974a9c627318c584b7b4c680 [shntool] gd1983-04-22d2t02.shn
c0d8f25df93ce90f59af5fa53d42b119 [shntool] gd1983-04-22d2t03.shn
274cda2aa9acb9cd00bb9a0749a89406 [shntool] gd1983-04-22d2t04.shn
6d450d31357538833beb6ca1db10b52f [shntool] gd1983-04-22d2t05.shn
cc8b357cf6f752b13439ba12ba1dba3d [shntool] gd1983-04-22d2t06.shn
817ee00bc8f0d1a19e10e1276ff5fecf [shntool] gd1983-04-22d2t07.shn
dff955f06b77f66f61bb578b4e744b88 [shntool] gd1983-04-22d2t08.shn
e29e8b90c9108c16a0394841bafa995a [shntool] gd1983-04-22d2t09.shn
f4d09cae568f9c82892bccb279adb0a9 [shntool] gd1983-04-22d3t01.shn
1b83c050aec8e1956a462fae6bcd1598 [shntool] gd1983-04-22d3t02.shn
890e30595a317053a8de040cbb2960c3 [shntool] gd1983-04-22d3t03.shn
27b79f4d0406e3c1697e7bc6539ae939 [shntool] gd1983-04-22d3t04.shn
14c131f0d0ef1b479d9a89c23a47bbca [shntool] gd1983-04-22d3t05.shn
59c89f33ba1fec6b5d6b9582720ff881 [shntool] gd1983-04-22d3t06.shn
80a548417a524fdcad1d189b58126839 [shntool] gd1983-04-22d3t07.shn
fc17e608c96fed9ef14c499fd86aa1ec [shntool] gd1983-04-22d3t08.shn

Comments
Add Comment
Other Sources (comments)
FOB-Sennheiser 421> Master... (1) flac16;... (0) flac16; Nakamichi... (0) flac16; Source: 2... (0) flac24; AUD: 2x... (1) flac16; AUD: 2x... (1) flac24; Updated... (0) flac16; 1st Gen AUD... (0) flac16; source: aud... (0) flac24; source: aud... (0) flac16/44.1 First... (0) flac24/48 First... (0)
Date User Comment