Browse Collections Artists Sources   Search Dates

Add Show    List Management    Help


Grateful Dead 09/11/83
Santa Fe Downs, Santa Fe, NM
Comments Add Comment    Source Collectors    Add to Collection    Add to Want List    History
Source # 23224 Other Sources
Entered by dr.unclear
Checksums shn-md5 , st5
Disc Counts 2 / 3
Media Size
Date Circulated
Date Added
03/31/2004
04/02/2004
Source Summary Source: Jeff Silberman's Master Audience PCM; Sennheiser 441 mics > Technics SV100 PCM > DAT > CDR *Additional Editing by The Mighty Terrapin(Had The Remaining tracks from d1t06-10) 
  Archive
Source Information - Download Text | Download Zip
Grateful Dead
Date - 9/11/83
Downs of Santa Fe
Santa Fe, New Mexico

Source: Sennheiser 441 mics > Technics SV100 PCM > DAT > CDR
Taper: Jeff Silberman's Master Audience PCM
Transferer: EAC'ed / SHN'ed and CD Remastering by Scott Clugston on 7/23/01

set 1
disk 1
  
01. Alabama Getaway>
02. Greatest Story Ever Told
03. Dire Wolf
04. Hell In A Bucket
05. West L.A. Fadeaway*
06. Me & My Uncle ->*
07. Mexicali Blues*
08. Althea*
09. C.C. Ryder ->*
10. Might As Well*

set 2
disk 2

01. Help On the Way ->
02. Slipknot! ->
03. Franklin's Tower
04. Let It Grow
05. He's Gone ->
06. Drums- >
  
disk 3

01. Space ->
02. Truckin' ->
03. Wang Dang Doodle ->
04. Morning Dew ->
05. Around And Around ->
06. Sugar Magnolia
   Encore
07. U.S. Blues

Notes
- *Additional Editing by The Mighty Terrapin(Had The Remaining tracks from d1t06-10)
- Fits on 3 80 min cdr(audio)



    length     expanded size   cdr  WAVE problems filename
     5:25.65       57482924    ---   --   ---xx   gd83-09-11d1t01.shn
     4:22.14       46249772    ---   --   ---xx   gd83-09-11d1t02.shn
     3:51.43       40849580    ---   --   ---xx   gd83-09-11d1t03.shn
     5:22.18       56843180    ---   --   ---xx   gd83-09-11d1t04.shn
     9:58.31      105560156    ---   --   ---xx   gd83-09-11d1t05.shn
     3:04.37       32544668    ---   --   ---xx   gd83-09-11d1t06.shn
     5:37.44       59550332    ---   --   ---xx   gd83-09-11d1t07.shn
     7:15.65       76886924    ---   --   ---xx   gd83-09-11d1t08.shn
     8:05.23       85608140    ---   --   ---xx   gd83-09-11d1t09.shn
     4:31.47       47914988    ---   --   ---xx   gd83-09-11d1t10.shn
     3:46.14       39899372    ---   --   ---xx   gd83-09-11d2t01.shn
     7:20.46       77724236    ---   --   ---xx   gd83-09-11d2t02.shn
     9:48.68      103883180    ---   --   ---xx   gd83-09-11d2t03.shn
    14:52.69      157511436    -b-   --   ---xx   gd83-09-11d2t04.shn
    11:06.45      117588284    ---   --   ---xx   gd83-09-11d2t05.shn
     8:21.40       88470524    ---   --   ---xx   gd83-09-11d2t06.shn
    10:09.67      107585228    ---   --   ---xx   gd83-09-11d3t01.shn
    12:38.04      133720652    ---   --   ---xx   gd83-09-11d3t02.shn
     5:21.45       56730284    ---   --   ---xx   gd83-09-11d3t03.shn
    10:06.40      106992524    ---   --   ---xx   gd83-09-11d3t04.shn
     3:42.04       39170252    ---   --   ---xx   gd83-09-11d3t05.shn
    11:10.09      118209212    ---   --   ---xx   gd83-09-11d3t06.shn
     5:19.17       56312236    -b-   --   ---xx   gd83-09-11d3t07.shn
   171:19.30     1813288084 B                     (totals for 23 files, 0.5965 overall compression ratio)

Show Checksums
shn-md5
e8a03800b0af9e6b6248c42b92941afd *gd83-09-11d1t01.shn
497f299c9b428e645d51c79f6c089347 *gd83-09-11d1t02.shn
b6df9f6be70b7b88a091d4aa688d6cc1 *gd83-09-11d1t03.shn
af6d293d886ec89dbe940d80c5f3e38c *gd83-09-11d1t04.shn
f78a880f23e2a717754480f83169e4fa *gd83-09-11d1t05.shn
d4aef3fd8a1a8602c508e652f7c27a33 *gd83-09-11d1t06.shn
ef54ed2098ba9f26b52d143ff9e42b70 *gd83-09-11d1t07.shn
6a5b861b4208986b8c05e1e81775c59f *gd83-09-11d1t08.shn
8eaf9d5639e630543987889cf9adbf4c *gd83-09-11d1t09.shn
d01434f416e1163faca06cab28b8737d *gd83-09-11d1t10.shn
a1df72975b9e02d599f96b6139fbcc5e *gd83-09-11d2t01.shn
dc77e6d5802f5e0147846a8871975198 *gd83-09-11d2t02.shn
dd74b98fbaffa188f747c38bf05168fe *gd83-09-11d2t03.shn
2cee57b0de834618995e9fe7c1171cbb *gd83-09-11d2t04.shn
7293f0ccdb7945c2349087ca957b40b0 *gd83-09-11d2t05.shn
cdabde86960964dd90cc77c4031f10b2 *gd83-09-11d2t06.shn
9a633081748c4e38ef5aa63aa9c0c112 *gd83-09-11d3t01.shn
8a109ccab57ed63c1aba89eea0673f45 *gd83-09-11d3t02.shn
84efada4fb3b2bacec19b1315c0912b4 *gd83-09-11d3t03.shn
ee14f57eab1ad29884bf9c51c68146aa *gd83-09-11d3t04.shn
afb329312b980e942dfe0b4be4011f9a *gd83-09-11d3t05.shn
8feb49c3531ba79387aa4042189ab58b *gd83-09-11d3t06.shn
d54a84b797d03b315cb7524049d81ccd *gd83-09-11d3t07.shn
st5
4a99346ca7870a412d0963ed79fbbd1f [shntool] gd83-09-11d1t01.shn
8b3223f7ac1727299cda06e8d1459ce8 [shntool] gd83-09-11d1t02.shn
3dbddd9eb2e218de2592f6b233a61ef6 [shntool] gd83-09-11d1t03.shn
893e2a2b0f3d5ea981ae74e41fb5c4e6 [shntool] gd83-09-11d1t04.shn
5cef903e5e4fcad48de446a678ade676 [shntool] gd83-09-11d1t05.shn
47b830ff4f1c4d239115f4fa2586784a [shntool] gd83-09-11d1t06.shn
295fd6f279d9e1288d41ea6c224ed6da [shntool] gd83-09-11d1t07.shn
3d4d9d1e9bbc5a1bc94447692a2faac3 [shntool] gd83-09-11d1t08.shn
3bc6e5b2c1c12d4b50874f6849ccf50d [shntool] gd83-09-11d1t09.shn
509bcc177ebcd7833c2ba4aefb99a513 [shntool] gd83-09-11d1t10.shn
f452e8b83559bf5520a28c018e884769 [shntool] gd83-09-11d2t01.shn
d4750517068d581aaab7978e7bd9f633 [shntool] gd83-09-11d2t02.shn
d11a824310ab3aa6eeaa9d7b27f1037d [shntool] gd83-09-11d2t03.shn
3b57995daba738a56c60765b08be1d5b [shntool] gd83-09-11d2t04.shn
3598f01d002ce9f5ff9a56f195a36e5a [shntool] gd83-09-11d2t05.shn
8b43bbda26ecd2cae1ce6818b112213d [shntool] gd83-09-11d2t06.shn
49b23605564daf3f4a6c4c9dd327dcfe [shntool] gd83-09-11d3t01.shn
0dc3f9a693c75308ee86291d496a9db1 [shntool] gd83-09-11d3t02.shn
94bfc3307224f637768326911473b96d [shntool] gd83-09-11d3t03.shn
eaf65227c07c92fbb273b57481682984 [shntool] gd83-09-11d3t04.shn
23d7026904a7768ec25d28c47429efa9 [shntool] gd83-09-11d3t05.shn
a9ebb5807cbf7cd2cd45e03fefe626b3 [shntool] gd83-09-11d3t06.shn
ff95ae1f693f911409b1dfa08406894a [shntool] gd83-09-11d3t07.shn

Comments
Add Comment
Other Sources (comments)
Source: Jeff Silberman's... (1) SBD> Master Cassette> 1... (0) flac16; Source:... (0) flac16; Source:... (0) SBD-> ?->CD->EAC->WAV->SHN... (1) flac16; source: 2... (0) flac16; 2 Source... (0) flac16; 2 Source... (0) flac24; billydee... (0) flac16; Set 2 Jeff... (0) flac16; billydee... (0) flac16/44.1 ... (0) flac24/48 Master:... (0)
Date User Comment
04/26/2004 Jason Moleton I have had an unknown audience analog source of this show for years that absolutely smokes. It was recommended by an old tape trading friend and became an instant favorite solely because of the dynamics of the source. I was hoping I had found it again on the Jeff Silberman Sennheiser 441 shn source, but upon further listening, I was disappointed. I realized right away, it was not the same source. The Silberman source sounds good, but the vocals sound a little muddy in my opinion. In comparison, my analog source has incredible reverb all the way through, that enhances the sound, and is very out front on the vocals. It really allows those of us that were not there to feel like we were in 1983 listening to a pristine classic unfold right in front and all around us. Unfortunately, I do not have the exact audience source(unknown mics) for my analogs that is definitely different than the Jeff Silberman source. I am not saying I am a sound expert, but even to the untrained ear, my tapes are different and better than the Jeff Silberman shn audience source(sorry Jeff). This analog audience source I speak of is, however, one of the best outdoor audience analog tapes I have, hands down. When I was trading and/or giving away tapes a few years back, I would always include this. I would definitely like to upgrade from the analog source I speak of to shn quality. This would replace my Jeff Silberman source on shn. Can anyone help in identifying the source and/or trade for it? How about uploading to tol.etree.org at the least? It's somewhere out there, so I would be willing to part with anything of your choosing. My list is db.etree.org/jmoleton Thanks.