Browse Collections Artists Sources   Search Dates

Add Show    List Management    Help


Phish 03/28/92
Variety Playhouse, Atlanta, GA
Comments Add Comment    Source Collectors    Add to Collection    Add to Want List    History
Source # 24374 Other Sources
Entered by Ben Mohr
Checksums all_ffp
Disc Counts 1 / 1
Media Size
Date Circulated
Date Added
05/25/04
05/29/2004
Source Summary FOB AKG 460b/ck8 > DAT > CDR (master) > AquaCDBurn > shntool > FLAC; Taped by Chig Martin; Transferred by JTL 
Source Information - Download Text | Download Zip
Phish

March 28, 1992
Variety Playhouse
Atlanta, GA

01. Runaway Jim
02. Foam
03. Sparkle
04. Stash
05. Rift
06. Bouncing Around the Room
07. The Landlady >
08. Lullaby >
09. 'Phish language explained' >
10. David Bowie
11. Glide
12. Cavern
-------------------------------------------------------------------------------------
source:   AKG-460B/CK8 (FOB)> DAT (clone from master) > CD-R (standalone master)
transfer: CD > AquaCDBurn (paranoid libraries on) > shntool > FLAC (xACT)
              - taped by Chig Martin (Home Team) -
              - transfered and seeded by JTL (Home Team) -
-------------------------------------------------------------------------------------
notes:
- recorded & transfered @ 16/48 and converted to 16/44
- minor level tweeks during t01 (on DAT)
- show was stopped early due to a sewage pipe breaking and filling the floor and first few rows with
   a fecal stew. In fear of being electrocuted Phish performed 4 songs a cappella and said "goodnight"
- small 2nd set (4 songs a cappella) was not recorded due to being way to close to the poopy water!
- t08 and t09 not listed on phish.net and is rare.
-------------------------------------------------------------------------------------
shntool output:
    length     expanded size   cdr  WAVE problems filename
     7:23.25       78204044    ---   --   ---xx   phish1992-03-28t01.flac
     8:10.57       86570108    ---   --   ---xx   phish1992-03-28t02.flac
     4:15.03       44989100    ---   --   ---xx   phish1992-03-28t03.flac
     8:30.46       90072236    ---   --   ---xx   phish1992-03-28t04.flac
     8:05.04       85563452    ---   --   ---xx   phish1992-03-28t05.flac
     3:53.25       41160044    ---   --   ---xx   phish1992-03-28t06.flac
     3:37.39       38370572    ---   --   ---xx   phish1992-03-28t07.flac
     2:40.40       28318124    ---   --   ---xx   phish1992-03-28t08.flac
     6:00.60       63645164    ---   --   ---xx   phish1992-03-28t09.flac
    10:08.67      107408828    ---   --   ---xx   phish1992-03-28t10.flac
     4:02.18       42731180    ---   --   ---xx   phish1992-03-28t11.flac
     4:42.32       49820108    ---   --   ---xx   phish1992-03-28t12.flac
    71:30.41      756852960 B     (totals for 12 files, 0.6325 overall compression ratio)
-------------------------------------------------------------------------------------
Show Checksums
all_ffp
phish1992-03-28t01.flac:96e64f36fd532b7f798abb2e657b3238
phish1992-03-28t02.flac:eaa8da57684d9d818cb6e7f9d97f21ac
phish1992-03-28t03.flac:7b0afad6be1464af2de4d00f9cb3d5cc
phish1992-03-28t04.flac:26c66024de101fde734c0f5b37008e33
phish1992-03-28t05.flac:5cc0003e224832b46bae7d16e6b78167
phish1992-03-28t06.flac:939fdf0d9cdc97c0666303e6df715748
phish1992-03-28t07.flac:ce36c40835c0b0b5a423aa1babeba710
phish1992-03-28t08.flac:bf0c023348077358f967b8b2921e8a9a
phish1992-03-28t09.flac:3a2b4afc836d14e4029cd1695a8bbff4
phish1992-03-28t10.flac:c099bc32efd5e4990cb56056c5b52b4c
phish1992-03-28t11.flac:0db5d0a9a9dd7b5cd8597a850791b2d4
phish1992-03-28t12.flac:92345b62f7b7e3860c659bf9551aa2cd

Comments
Add Comment
Date User Comment
06/01/2004 dylan on my nak 300 master cassette I have the lullaby listed as "weeping willow" ? dont know if this helps at all but boy was that a bummer for the 2nd set!
06/12/2004 shoop The tune is actually a jam on "Lullaby of Birdland", an old jazz standard from back in the 40's/50's.
08/30/2004 Marmar I have copies of this show I'll be transferring shortly....I have the missing "2nd" set.
11/13/2008 twatts This entire show (w/ a cappella set2) is available as a Bonus Disc with the new Official Roxy Release.