Browse Collections Artists Sources   Search Dates

Add Show    List Management    Help


Patterson Hood 06/06/04
The Grey Eagle, Asheville, NC
Comments Add Comment    Source Collectors    Add to Collection    Add to Want List    History
Source # 24691 Other Sources
Entered by Kyle pike
Checksums ffp
Disc Counts 2 / 3
Media Size
Date Circulated
Date Added
6/7/04
08/04/2004
Source Summary SBD > DA20MKII > DA-P1 (Gordon Wilson)  
Source Information - Download Text | Download Zip
Patterson Hood
6-6-04
The Grey Eagle
Asheville,NC

source: sbd > rca > da20mkII @ 44.1 > coax > dap-1
patched from the house deck

transfer: dap-1 > audiophile 24/96 > soundforge 6.0 > cdwave > flac frontend (level 7)
sector boundaries confirmed with shntool

taped, transfered, and seeded by [email protected]

Disc One
1. House Music
2. Rising Son
3. Miss Me When I'm Gone
4. Uncle Disney
5. The Company I Keep
6. ??
7. Banter
8. Sink Hole
9. Understand Now
10. Mama Bake A Pie
11. Careless
12. Puttin People on the Moon
13. Phil's Transplant
14. Tails Facing Up
15. ??
16. Heathens
17. Iwo Jima Intro
18. Sands of Iwo Jima

Disc Two
1. Pay No Attention to Alice
2. Wallace
3. Nine Bullets

encore:
4. Crowd
5. ??
6. ??
7. Let There Be Rock

fingerprint:
patterson2004-06-06d1t01.flac:2191978e1b8103ef9a23f486f4773668
patterson2004-06-06d1t02.flac:b6ff703f21a84a128776caccaf997cc5
patterson2004-06-06d1t03.flac:86e40ed8b6e3985c67f8caff49284cb2
patterson2004-06-06d1t04.flac:d7974e24520e7b333821914967091e58
patterson2004-06-06d1t05.flac:165804d849e0477931f94b9cb7545d82
patterson2004-06-06d1t06.flac:9c3483d3494f6e61b15578e7cb787978
patterson2004-06-06d1t07.flac:6d9b7e6a19029cd4c9bdf22f68cd59ad
patterson2004-06-06d1t08.flac:4430e7efbd19fbddb0d19f88c29b1715
patterson2004-06-06d1t09.flac:c4404e2a6d0ebc908384941badcc77b3
patterson2004-06-06d1t10.flac:f9766920fa43d6971f46ca7fb6be0693
patterson2004-06-06d1t11.flac:4ad55a32d0d1ab52bc2a9fed8b376649
patterson2004-06-06d1t12.flac:a3c5eee83fef25797387a057b22dae31
patterson2004-06-06d1t13.flac:bf08de98c91499770705b083b528159e
patterson2004-06-06d1t14.flac:9a89a3cb6ce3bd4108e875f31aceb6fb
patterson2004-06-06d1t15.flac:b7c558585bd90f85b08dd80fca171ec5
patterson2004-06-06d1t16.flac:1c45493c6e6d70135f3eb8c9eda6df04
patterson2004-06-06d1t17.flac:4cece6ddaf7ee5dc8b1bbfcb72f2ea06
patterson2004-06-06d1t18.flac:4aab40b68d6f7454c25b9b05e83b73d9
patterson2004-06-06d2t01.flac:a7cb3190034511d49a8ad9a420822297
patterson2004-06-06d2t02.flac:f812dbe884954d93b04866d82438f759
patterson2004-06-06d2t03.flac:91b85d78a2a3a384f450135f0de25dab
patterson2004-06-06d2t04.flac:c4a4d17c8bb1f1ee1b5adb754bee7404
patterson2004-06-06d2t05.flac:cc77a3b6e5672f155844b040fa703201
patterson2004-06-06d2t06.flac:c1678c3a959de36f658558f2dd7eaa24
patterson2004-06-06d2t07.flac:0315a8bf4c7f599750b17ec184ba404f

length expanded size cdr WAVE problems filename
1:20.03 14119100 --- -- ---xx patterson2004-06-06d1t01.flac
3:45.30 39760604 --- -- ---xx patterson2004-06-06d1t02.flac
5:40.71 60143036 --- -- ---xx patterson2004-06-06d1t03.flac
3:34.55 37879004 --- -- ---xx patterson2004-06-06d1t04.flac
7:33.55 80038604 --- -- ---xx patterson2004-06-06d1t05.flac
5:02.22 53324588 --- -- ---xx patterson2004-06-06d1t06.flac
1:05.15 11501324 --- -- ---xx patterson2004-06-06d1t07.flac
3:43.42 39436028 --- -- ---xx patterson2004-06-06d1t08.flac
3:57.23 41860940 --- -- ---xx patterson2004-06-06d1t09.flac
3:36.71 38269436 --- -- ---xx patterson2004-06-06d1t10.flac
2:31.27 26699948 --- -- ---xx patterson2004-06-06d1t11.flac
5:08.12 54359468 --- -- ---xx patterson2004-06-06d1t12.flac
3:48.53 40343900 --- -- ---xx patterson2004-06-06d1t13.flac
4:57.56 52522556 --- -- ---xx patterson2004-06-06d1t14.flac
3:01.35 32010764 --- -- ---xx patterson2004-06-06d1t15.flac
4:24.25 46628444 --- -- ---xx patterson2004-06-06d1t16.flac
2:41.44 28503932 --- -- ---xx patterson2004-06-06d1t17.flac
5:33.33 58818860 --- -- ---xx patterson2004-06-06d1t18.flac
3:31.74 37394492 --- -- ---xx patterson2004-06-06d2t01.flac
6:24.29 67805852 --- -- ---xx patterson2004-06-06d2t02.flac
4:45.33 50351660 --- -- ---xx patterson2004-06-06d2t03.flac
2:14.42 23736428 --- -- ---xx patterson2004-06-06d2t04.flac
12:17.39 130098572 --- -- ---xx patterson2004-06-06d2t05.flac
5:10.25 54742844 --- -- ---xx patterson2004-06-06d2t06.flac
8:41.06 91918556 --- -- ---xx patterson2004-06-06d2t07.flac
114:32.20 1156.11 MB (totals for 25 files, 0.4387 overall compression ratio)
Show Checksums
ffp
patterson2004-06-06d1t01.flac:2191978e1b8103ef9a23f486f4773668
patterson2004-06-06d1t02.flac:b6ff703f21a84a128776caccaf997cc5
patterson2004-06-06d1t03.flac:86e40ed8b6e3985c67f8caff49284cb2
patterson2004-06-06d1t04.flac:d7974e24520e7b333821914967091e58
patterson2004-06-06d1t05.flac:165804d849e0477931f94b9cb7545d82
patterson2004-06-06d1t06.flac:9c3483d3494f6e61b15578e7cb787978
patterson2004-06-06d1t07.flac:6d9b7e6a19029cd4c9bdf22f68cd59ad
patterson2004-06-06d1t08.flac:4430e7efbd19fbddb0d19f88c29b1715
patterson2004-06-06d1t09.flac:c4404e2a6d0ebc908384941badcc77b3
patterson2004-06-06d1t10.flac:f9766920fa43d6971f46ca7fb6be0693
patterson2004-06-06d1t11.flac:4ad55a32d0d1ab52bc2a9fed8b376649
patterson2004-06-06d1t12.flac:a3c5eee83fef25797387a057b22dae31
patterson2004-06-06d1t13.flac:bf08de98c91499770705b083b528159e
patterson2004-06-06d1t14.flac:9a89a3cb6ce3bd4108e875f31aceb6fb
patterson2004-06-06d1t15.flac:b7c558585bd90f85b08dd80fca171ec5
patterson2004-06-06d1t16.flac:1c45493c6e6d70135f3eb8c9eda6df04
patterson2004-06-06d1t17.flac:4cece6ddaf7ee5dc8b1bbfcb72f2ea06
patterson2004-06-06d1t18.flac:4aab40b68d6f7454c25b9b05e83b73d9
patterson2004-06-06d2t01.flac:a7cb3190034511d49a8ad9a420822297
patterson2004-06-06d2t02.flac:f812dbe884954d93b04866d82438f759
patterson2004-06-06d2t03.flac:91b85d78a2a3a384f450135f0de25dab
patterson2004-06-06d2t04.flac:c4a4d17c8bb1f1ee1b5adb754bee7404
patterson2004-06-06d2t05.flac:cc77a3b6e5672f155844b040fa703201
patterson2004-06-06d2t06.flac:c1678c3a959de36f658558f2dd7eaa24
patterson2004-06-06d2t07.flac:0315a8bf4c7f599750b17ec184ba404f

Comments
Add Comment
Date User Comment
06/21/2004 Kyle pike this is a Patterson Hood solo show.