Browse Collections Artists Sources   Search Dates

Add Show    List Management    Help


Drive-By Truckers 07/22/04
The Handlebar, Greenville, SC
Comments Add Comment    Source Collectors    Add to Collection    Add to Want List    History
Source # 25252 Other Sources
Entered by Kyle pike
Checksums ffp
Disc Counts 2 / 3
Media Size
Date Circulated
Date Added
7/30/04
08/04/2004
Source Summary Schoeps MK41 > CMC6XT> Lunatec V3 > DA-P1 (William Boswell)  
Source Information - Download Text | Download Zip
Drive By Truckers
7-22-04
The Handel Bar
Greenville,SC

Source: fob dfc 20' schoeps cmc6xt/mk41 > AudioMagic Xtream> v3 > dap-1
transfer: dap-1 > audiophile 24/96 > wavelab 4.0 > cd wave > flac frontend (level 6)

taped by William Boswell
transfer and seeded by [email protected]


1. Intro
2. The Boys From Alabama
3. Sink Hole
4. Cotton Seed*
5. The Buford Stick
6. Decoration Day
7. Putting People On The Moon
8. Lookout Mountain
9. When the Pin Hits The Shell
10. Marry Me
11. My Sweet Annette
12. Goddamned Lonely love
13. Ain't Never Gonna Change
14. Careless
15. Plastic Flowers on The Highway

disc two:

1. Carl Perkins' Cadillac
2. Mama Bake a Pie
3. Heathens
4. Daddy's Cup
5. Zip City*
6. Outfit
7. Let There Be Rock

disc three:

encore:

1. Intro
2. Runaway Train%
3. Tornadoes*
4. Danko/Manuel
5. Where The Devil Don't Stay
6. Somethings Gotta Give
7. Road Cases
8. Shut Up and Get On The Plane
9. Greenville to Baton Rouge
10. Angels and Fuselage*

* there are a few small pops/static. I confirmed that they are on the master DAT.
^ just Patterson and Cooley
% dedicated to every bitch who did you wrong!

wavelab was used to resample and to add fades at the beginning and end of the show.
sector boundaries confirmed with shntool.


DBT 2002-07-22d1t01.flac:d271a04cd621e7d44f081f213fd61227
DBT 2002-07-22d1t02.flac:b5af7705af4248922ce661766a1f3e8a
DBT 2002-07-22d1t03.flac:711a5cd6cd966fdf0affecde3ab9b3ec
DBT 2002-07-22d1t04.flac:24d860d4ad9fb0afa6d1824d3e9ee94e
DBT 2002-07-22d1t05.flac:a1dd9e6d673beb9fbbfe941b7a9fe871
DBT 2002-07-22d1t06.flac:cd5e4f8b28e506989d2a35692fc92114
DBT 2002-07-22d1t07.flac:0cd2ea7111033438a685e1445cbed5c8
DBT 2002-07-22d1t08.flac:44461ecc96a168b9468dcf9a36113419
DBT 2002-07-22d1t09.flac:5b280cf2a23cc9ec876c13bb8f01de9e
DBT 2002-07-22d1t10.flac:ef0e4e34c5fa5469dde48aedb9056038
DBT 2002-07-22d1t11.flac:64edcefdfa88e71d9f4a0608ee80657d
DBT 2002-07-22d1t12.flac:bd24edc5a53e650ebb76dbea08b66896
DBT 2002-07-22d1t13.flac:a92f8fb1b199224a494fd4e84ab146b5
DBT 2002-07-22d1t14.flac:79ca46940f7331dbd64bdccce99af8a1
DBT 2002-07-22d1t15.flac:6f23e487d33b7a03e7384acce482b26a
DBT 2002-07-22d2t01.flac:4a8d6bd4f664166ddb05d610bd59f704
DBT 2002-07-22d2t02.flac:da95ada9e99c97a7785eb274e734f4ea
DBT 2002-07-22d2t03.flac:e3c5343e93ecd5480164c24cc4068304
DBT 2002-07-22d2t04.flac:ee0a38ec64f4c2064463cbc56093a336
DBT 2002-07-22d2t05.flac:c1118335a4a6b97f7f3eb39fa7265869
DBT 2002-07-22d2t06.flac:bde2a8fc8767efecac2999e05a35df7d
DBT 2002-07-22d2t07.flac:912f8241a8959298c856b5963f6069f9
DBT 2002-07-22d3t01.flac:5b71751bbabb0cb11de4471de870823e
DBT 2002-07-22d3t02.flac:cfdc8eb4cfebc70dbc8b07dbaf182479
DBT 2002-07-22d3t03.flac:ec7647971339a16900f1e734046816c8
DBT 2002-07-22d3t04.flac:60ac1531599c317b0b95f4738b23c60c
DBT 2002-07-22d3t05.flac:3bc0a02f65ebd0ed078efadbb5701727
DBT 2002-07-22d3t06.flac:2aaa77c3364fc43652db4bbe6d5c38a0
DBT 2002-07-22d3t07.flac:4d78513be49b34d66619145f82ca7ea8
DBT 2002-07-22d3t08.flac:32dd6cd53416ee5984f2cd669694c82b
DBT 2002-07-22d3t09.flac:91d7bee197986dfad3c4a03030cbac5d
DBT 2002-07-22d3t10.flac:654ea718af704c8aca3d41b652df4de3


length expanded size cdr WAVE problems filename
1:22.26 14525996 --- -- ---xx DBT 2002-07-22d1t01.flac
7:49.10 82755164 --- -- ---xx DBT 2002-07-22d1t02.flac
3:39.51 38751596 --- -- ---xx DBT 2002-07-22d1t03.flac
4:31.03 47811500 --- -- ---xx DBT 2002-07-22d1t04.flac
5:13.31 55286156 --- -- ---xx DBT 2002-07-22d1t05.flac
7:09.02 75680348 --- -- ---xx DBT 2002-07-22d1t06.flac
4:59.23 52797740 --- -- ---xx DBT 2002-07-22d1t07.flac
5:02.74 53446892 --- -- ---xx DBT 2002-07-22d1t08.flac
4:20.13 45894620 --- -- ---xx DBT 2002-07-22d1t09.flac
5:50.42 61838828 --- -- ---xx DBT 2002-07-22d1t10.flac
5:06.01 53980796 --- -- ---xx DBT 2002-07-22d1t11.flac
5:14.08 55408460 --- -- ---xx DBT 2002-07-22d1t12.flac
5:22.46 56909036 --- -- ---xx DBT 2002-07-22d1t13.flac
2:09.62 22901468 --- -- ---xx DBT 2002-07-22d1t14.flac
6:28.70 68607884 --- -- ---xx DBT 2002-07-22d1t15.flac
5:41.56 60284156 --- -- ---xx DBT 2002-07-22d2t01.flac
3:42.45 39266684 --- -- ---xx DBT 2002-07-22d2t02.flac
5:27.19 57727532 --- -- ---xx DBT 2002-07-22d2t03.flac
6:08.55 65044604 --- -- ---xx DBT 2002-07-22d2t04.flac
5:34.70 59082284 --- -- ---xx DBT 2002-07-22d2t05.flac
4:41.69 49730732 --- -- ---xx DBT 2002-07-22d2t06.flac
8:20.54 88327052 --- -- ---xx DBT 2002-07-22d2t07.flac
1:58.49 20930492 --- -- ---xx DBT 2002-07-22d3t01.flac
4:50.54 51283052 --- -- ---xx DBT 2002-07-22d3t02.flac
5:14.03 55396700 --- -- ---xx DBT 2002-07-22d3t03.flac
6:28.53 68567900 --- -- ---xx DBT 2002-07-22d3t04.flac
5:21.62 56770268 --- -- ---xx DBT 2002-07-22d3t05.flac
4:22.43 46317980 --- -- ---xx DBT 2002-07-22d3t06.flac
2:48.25 29694044 --- -- ---xx DBT 2002-07-22d3t07.flac
4:42.37 49831868 --- -- ---xx DBT 2002-07-22d3t08.flac
4:43.62 50067068 --- -- ---xx DBT 2002-07-22d3t09.flac
10:19.34 109271612 --- -- ---xx DBT 2002-07-22d3t10.flac
164:47.52 1663.39 MB (totals for 32 files, 0.5771 overall compression ratio)
Show Checksums
ffp
DBT 2002-07-22d1t01.flac:d271a04cd621e7d44f081f213fd61227
DBT 2002-07-22d1t02.flac:b5af7705af4248922ce661766a1f3e8a
DBT 2002-07-22d1t03.flac:711a5cd6cd966fdf0affecde3ab9b3ec
DBT 2002-07-22d1t04.flac:24d860d4ad9fb0afa6d1824d3e9ee94e
DBT 2002-07-22d1t05.flac:a1dd9e6d673beb9fbbfe941b7a9fe871
DBT 2002-07-22d1t06.flac:cd5e4f8b28e506989d2a35692fc92114
DBT 2002-07-22d1t07.flac:0cd2ea7111033438a685e1445cbed5c8
DBT 2002-07-22d1t08.flac:44461ecc96a168b9468dcf9a36113419
DBT 2002-07-22d1t09.flac:5b280cf2a23cc9ec876c13bb8f01de9e
DBT 2002-07-22d1t10.flac:ef0e4e34c5fa5469dde48aedb9056038
DBT 2002-07-22d1t11.flac:64edcefdfa88e71d9f4a0608ee80657d
DBT 2002-07-22d1t12.flac:bd24edc5a53e650ebb76dbea08b66896
DBT 2002-07-22d1t13.flac:a92f8fb1b199224a494fd4e84ab146b5
DBT 2002-07-22d1t14.flac:79ca46940f7331dbd64bdccce99af8a1
DBT 2002-07-22d1t15.flac:6f23e487d33b7a03e7384acce482b26a
DBT 2002-07-22d2t01.flac:4a8d6bd4f664166ddb05d610bd59f704
DBT 2002-07-22d2t02.flac:da95ada9e99c97a7785eb274e734f4ea
DBT 2002-07-22d2t03.flac:e3c5343e93ecd5480164c24cc4068304
DBT 2002-07-22d2t04.flac:ee0a38ec64f4c2064463cbc56093a336
DBT 2002-07-22d2t05.flac:c1118335a4a6b97f7f3eb39fa7265869
DBT 2002-07-22d2t06.flac:bde2a8fc8767efecac2999e05a35df7d
DBT 2002-07-22d2t07.flac:912f8241a8959298c856b5963f6069f9
DBT 2002-07-22d3t01.flac:5b71751bbabb0cb11de4471de870823e
DBT 2002-07-22d3t02.flac:cfdc8eb4cfebc70dbc8b07dbaf182479
DBT 2002-07-22d3t03.flac:ec7647971339a16900f1e734046816c8
DBT 2002-07-22d3t04.flac:60ac1531599c317b0b95f4738b23c60c
DBT 2002-07-22d3t05.flac:3bc0a02f65ebd0ed078efadbb5701727
DBT 2002-07-22d3t06.flac:2aaa77c3364fc43652db4bbe6d5c38a0
DBT 2002-07-22d3t07.flac:4d78513be49b34d66619145f82ca7ea8
DBT 2002-07-22d3t08.flac:32dd6cd53416ee5984f2cd669694c82b
DBT 2002-07-22d3t09.flac:91d7bee197986dfad3c4a03030cbac5d
DBT 2002-07-22d3t10.flac:654ea718af704c8aca3d41b652df4de3

Comments
Add Comment
Date User Comment