Browse Collections Artists Sources   Search Dates

Add Show    List Management    Help


Grateful Dead 09/12/81
Greek Theatre, U. Of California, Berkeley, CA
Comments Add Comment    Source Collectors    Add to Collection    Add to Want List    History
Source # 25317 Other Sources
Entered by dr.unclear
Checksums shn-md5 , st5
Disc Counts 2 / 2
Media Size
Date Circulated
Date Added
07/28/2004
08/10/2004
Source Summary Recording by Jim Wise. FOB Senn 421s > Sony TC-D5 > MAC (Maxell XL II 90, Dolby B encoded) > playback on Nakamichi Dragon (Dolby B decoded) > Sony PCM R-700 (A>D passthrough) > Zefiro ZA2 > WAV (no processing!) > CD > EAC > WAV > SHN. Transfer and CD mastering by Jim Wise. Subsequent tracking and SHN encoding by Sean Cribbs 
  Archive
Source Information - Download Text | Download Zip
Grateful Dead
Greek Theater
Berkeley, CA
9/12/1981

FOB Senn 421s > Sony TC-D5 > MAC (Maxell XL II 90, Dolby B encoded) > playback on Nakamichi Dragon (Dolby B decoded) > Sony PCM R-700 (A>D passthrough) > Zefiro ZA2 > WAV (no processing!) > CD > EAC > WAV > SHN.  Original recording, transfer and CD mastering by Jim Wise.  Subsequent tracking and SHN encoding by Sean Cribbs 7/28/2004.

Disc One
1st Set
01 Shakedown
02 Greatest Story Ever Told
03 Friend of the Devil >
04 El Paso
05 Bird Song >
06 Cassidy
08 Tennessee Jed >
09 Looks Like Rain
10 China Cat Sunflower >
11 I Know You Rider

Disc Two
2nd Set
01 Scarlet Begonias >
02 Fire on the Mountain
03 CC Rider

Disc Three
01 tuning
02 Estimated Prophet >
03 Eyes of the World >
04 Space >
05 Drums >
06 Not Fade Away >
07 Wharf Rat >
08 Around and Around >
09 One More Saturday Night
Encore
10 It's All Over, Baby Blue
missing Good Lovin'

>shntool len *.wav

    length     expanded size   cdr  WAVE problems filename
    14:46.67      156448028    ---   --   -----   gd1981-09-12d1t01.wav
     3:52.06       40938956    ---   --   -----   gd1981-09-12d1t02.wav
     8:39.08       91570460    ---   --   -----   gd1981-09-12d1t03.wav
     5:10.73       54855740    ---   --   -----   gd1981-09-12d1t04.wav
    10:44.68      113761580    ---   --   -----   gd1981-09-12d1t05.wav
     5:22.00       56800844    ---   --   -----   gd1981-09-12d1t06.wav
     8:44.01       92435996    ---   --   -----   gd1981-09-12d1t07.wav
     8:37.14       91231772    ---   --   -----   gd1981-09-12d1t08.wav
     7:43.55       81802604    ---   --   -----   gd1981-09-12d1t09.wav
     5:33.46       58849436    ---   --   -----   gd1981-09-12d1t10.wav
    12:07.21      128292236    ---   --   -----   gd1981-09-12d2t01.wav
    12:58.00      137239244    ---   --   -----   gd1981-09-12d2t02.wav
     8:45.67       92767628    ---   --   -----   gd1981-09-12d2t03.wav
     1:34.47       16692188    ---   --   -----   gd1981-09-12d3t01.wav
    10:54.52      115487948    ---   --   -----   gd1981-09-12d3t02.wav
    15:51.38      167845820    ---   --   -----   gd1981-09-12d3t03.wav
     3:25.53       36286700    ---   --   -----   gd1981-09-12d3t04.wav
     9:09.46       96951836    ---   --   -----   gd1981-09-12d3t05.wav
    10:30.10      111155564    ---   --   -----   gd1981-09-12d3t06.wav
     9:28.29      100263452    ---   --   -----   gd1981-09-12d3t07.wav
     3:57.40       41900924    ---   --   -----   gd1981-09-12d3t08.wav
     4:30.38       47717420    ---   --   -----   gd1981-09-12d3t09.wav
     7:10.28       75917900    ---   --   -----   gd1981-09-12d3t10.wav
   189:38.57     2007214276 B                     (totals for 23 files)
Show Checksums
shn-md5
6f664bb519bc204b947d7ffab52d3428 *gd1981-09-12d1t01.shn
1f2f13023b596afbe4810aab44f9afef *gd1981-09-12d1t02.shn
08bcabe2021c586c099e245677fb85f1 *gd1981-09-12d1t03.shn
1ad84a131c9c9990108d24d0188bdcd1 *gd1981-09-12d1t04.shn
66ff8778065dce979136b7aed0feccab *gd1981-09-12d1t05.shn
e7f57d0ae5ba366f39a9ad1bcaf603c3 *gd1981-09-12d1t06.shn
34eb75068129877cbdc44b5d28a152d6 *gd1981-09-12d1t07.shn
d9d740bcb3a9850aaa3ab5de7e827f90 *gd1981-09-12d1t08.shn
b9ddfc3345d7c5362fb1e99169efa756 *gd1981-09-12d1t09.shn
3bd514cb9718e573c55c8fa6a3169aca *gd1981-09-12d1t10.shn
e46eff055ee6304ee46e2e9e13507a38 *gd1981-09-12d2t01.shn
5231247b3dd2108deaa7047d2dd1dd6b *gd1981-09-12d2t02.shn
0ce91e240d8ea138d0d226bbcbf0c23c *gd1981-09-12d2t03.shn
ff11374da02f52c8a7f74be127368f78 *gd1981-09-12d3t01.shn
464687af88736c418134a29be1e68924 *gd1981-09-12d3t02.shn
b4fac43794bf8142ec9a27fdbc5e5de2 *gd1981-09-12d3t03.shn
aab0912e15d026599a13659ba25308a0 *gd1981-09-12d3t04.shn
a157c2ac3662f89a99dd9ff13bc56443 *gd1981-09-12d3t05.shn
d53eee62f112e3d7d22fb14d0a24f223 *gd1981-09-12d3t06.shn
c44786af004ca92a77233eea6af64b37 *gd1981-09-12d3t07.shn
48feae731bedbf8f150763cade84c86f *gd1981-09-12d3t08.shn
307e308410ae8c0bc86a831cf4de7d25 *gd1981-09-12d3t09.shn
66003529badc4d49f59aba1588a1cc5d *gd1981-09-12d3t10.shn
st5
cfd94cc509932c792880e4921f0f97b8 [shntool] gd1981-09-12d1t01.shn
82397fddcd55d980dbb8afbaea77e261 [shntool] gd1981-09-12d1t02.shn
c6ec9f1abc62b97fff4bc99681402753 [shntool] gd1981-09-12d1t03.shn
35a0addbf2e1eabda56ec146cf642a94 [shntool] gd1981-09-12d1t04.shn
846cebbc5b9b4b3cbc42e8ba02eaff2c [shntool] gd1981-09-12d1t05.shn
6ecfcc3b7d5bc321c3808dfc043e3378 [shntool] gd1981-09-12d1t06.shn
8638f6461744ff35cddbee694c68792a [shntool] gd1981-09-12d1t07.shn
009f3dc0055210ac005ddd6f24547b97 [shntool] gd1981-09-12d1t08.shn
ba5742e5e030d5100195eb24041e07a1 [shntool] gd1981-09-12d1t09.shn
0a2d375adc29c1dc325971a4d6bc7560 [shntool] gd1981-09-12d1t10.shn
124137f73766fcfb0f013e79466de9bd [shntool] gd1981-09-12d2t01.shn
eb9a3d57708c4b4b77248577a8583a0c [shntool] gd1981-09-12d2t02.shn
e2a4cdaa41b99c4d0cc1eaa2deb2b085 [shntool] gd1981-09-12d2t03.shn
c8cb4765cfb92fc626f188f28928107f [shntool] gd1981-09-12d3t01.shn
7445b55444ad97b8548187e4b9064786 [shntool] gd1981-09-12d3t02.shn
6c6e077d88e60ffe0d898c507f6aaf24 [shntool] gd1981-09-12d3t03.shn
193850a16f2857c25e88f12a7ad86dc5 [shntool] gd1981-09-12d3t04.shn
5ba64fdaa5c7d0eb27b6d367f1232991 [shntool] gd1981-09-12d3t05.shn
8c3d5d24ceb176a5e0f2dfc4a82cc2a3 [shntool] gd1981-09-12d3t06.shn
f06002f6a3724fb1a37d649434e79927 [shntool] gd1981-09-12d3t07.shn
c9eaa2f67ff0e9c5cd713802a4d15e4c [shntool] gd1981-09-12d3t08.shn
a3c1e90aa06bbfe3abcc4eb74fd26abc [shntool] gd1981-09-12d3t09.shn
fc2c2ac9de298b6df2d02d073efd685a [shntool] gd1981-09-12d3t10.shn

Comments
Add Comment
Other Sources (comments)
Recording by Jim Wise.... (1) This is the same as shnid... (2) flac16; Recording by... (7) flac16; Source:... (0) flac16; Recording... (1) flac16; Recording... (2) flac16;Recording... (0) flac24; Recorded,... (1) flac16;Recorded,... (0) flac24; Source Info:... (0) flac16/48kHz; Source... (0)
Date User Comment