Browse Collections Artists Sources   Search Dates

Add Show    List Management    Help


Grateful Dead 05/14/83
Greek Theatre, U. Of California, Berkeley, CA
Comments Add Comment    Source Collectors    Add to Collection    Add to Want List    History
Source # 25407 Other Sources
Entered by dr.unclear
Checksums shn-md5 , st5
Disc Counts 1 / 1
Media Size
Date Circulated
Date Added
08/15/2004
08/19/2004
Source Summary *Set 1 Only*
Soundboard->Cassette Master->1st Generation Cassette. 1st Generation Cassette->Audiophile 2496->Samplitude v7.02 Professional->.wav->mkw->SHN. Transfer, editing, and SHN by Joe Samaritano 
  Archive
Source Information - Download Text | Download Zip
5/14/83 - Grateful Dead
Greek Theater, Berkeley, CA
*Set 1 Only*

Main Lineage:
Soundboard->Cassette Master->1st Generation Cassette

Patch Lineage:
Audience->Sennheiser 421's->Sony PCM-F1
{Start of Feel Like a Stranger to "let's get on with the show"}

Transfer:
1st Generation Cassette->Audiophile 2496->Samplitude
v7.02 Professional->.wav->mkw->SHN
De-clicked/popped and patched with Cool Edit Pro v2.0

Transfer, editing, and SHN by Joe Samaritano
8/15/2004

Notes:
1. The beginning of Feel Like a Stranger was clipped on the cassette,
so I patched it with an audience source.

2. Cassette flip at the start of Bertha, missing only a few seconds.

Set 1:
t01 - Feel Like a Stranger
t02 - FOTD
t03 - MAMU
t04 - Mexicali
t05 - Happy Birthday BK
t06 - Tennessee Jed
t07 - Brother Esau
t08 - Bertha

SHNTOOL OUTPUT:
    length     expanded size   cdr  WAVE problems filename
     8:39.38       91641020    ---   --   -----   gd1983-05-14s1t01.wav
     9:48.33      103800860    ---   --   -----   gd1983-05-14s1t02.wav
     3:23.70       35973884    ---   --   -----   gd1983-05-14s1t03.wav
     6:14.61       66117116    ---   --   -----   gd1983-05-14s1t04.wav
     1:01.67       10918028    ---   --   -----   gd1983-05-14s1t05.wav
     8:03.20       85248284    ---   --   -----   gd1983-05-14s1t06.wav
     5:24.30       57224204    ---   --   -----   gd1983-05-14s1t07.wav
     6:22.14       67417772    ---   --   -----   gd1983-05-14s1t08.wav
    48:58.33      518341168 B                     (totals for 8 files)

Show Checksums
shn-md5
235ded9785709f2d49dd3af049a86dbe *gd1983-05-14s1t01.shn
3b22583d235d3bfc11b57102d2337def *gd1983-05-14s1t02.shn
5a0a228417710b6648267c0a79a2b3b8 *gd1983-05-14s1t03.shn
8031e899e10ca9ae83d052facc0e43bd *gd1983-05-14s1t04.shn
78fb301df5a6c6138a787f6d45d1d785 *gd1983-05-14s1t05.shn
bf0623d61b5e89f025b16272ce1cedda *gd1983-05-14s1t06.shn
5b3ba1ed70e2dbd70918278f69abc1f2 *gd1983-05-14s1t07.shn
09aa4994da1af3ce4e22d218b7aa9e22 *gd1983-05-14s1t08.shn
st5
243defa7a346279667ad8678c5644d9c [shntool] gd1983-05-14s1t01.shn
1455d94423573894adc3a4f08dc2871d [shntool] gd1983-05-14s1t02.shn
3b2143a0eff32ccad06c304e834dce37 [shntool] gd1983-05-14s1t03.shn
a7643466a89dac611503b7d012e76cf9 [shntool] gd1983-05-14s1t04.shn
06c268584d54dad3d5306d1a73fc0001 [shntool] gd1983-05-14s1t05.shn
418cf4bec6bd9f3f42813eee580af757 [shntool] gd1983-05-14s1t06.shn
704010175b5e367a0f84ac9dd365f7dc [shntool] gd1983-05-14s1t07.shn
65342134a3542c03568ffaaa847a117a [shntool] gd1983-05-14s1t08.shn

Comments
Add Comment
Other Sources (comments)
FOB: 3 Sennheiser 421's >... (1) FOB: Sennheiser 421's >... (0) FOB Sennheiser 421s>Sony... (0) flac16; Master:... (0) flac16; Set 1 only,... (0) flac16; Recording... (0) flac16; Recording... (0) flac16; Source:... (0) Source: Audience recording... (1) flac16/48kHz;... (1) flac24/48 Master:... (0) flac16/44.1 ... (0)
Date User Comment
08/23/2004 Joe Samaritano Sorry about the not so great patch in Stranger, I'm still learning how to use SAM and CEP. Anyway, the complete show should surface soon.