Browse Collections Artists Sources   Search Dates

Add Show    List Management    Help


Phish 08/15/04
Newport State Airport, Coventry, VT
Comments Add Comment    Source Collectors    Add to Collection    Add to Want List    History
Source # 25436 Other Sources
Entered by Matt Vernon
Checksums ffp-orig , ffp-sbefix
Disc Counts 3 / 5
Media Size
Date Circulated
Date Added
08/19/04
08/23/2004
Source Summary FOB Neumann ak40 > lc3 > km100 > Lunatec V3 > VX Pocket @24bit/48kHz > Samplitude 7.0 > FLAC; Taped and transferred by John Cocci 
Source Information - Download Text | Download Zip
Phish
08-15-2004
Coventry, VT


Phish's final show.

Taped and Encoded by John Cocci


Source info:

FOB
Neumann ak40 > lc3 > km100 > Lunatec V3 > VX Pocket (24 Bit/48 Khz) > Samplitude 7.0 > FLAC v1.7.1

NOTE: Sector Boundary Errors fixed with SHNtool by Jason Sobel ([email protected])

Disc 1
Set 1
1 - Mike's Song >
2 - I am Hydrogen >
3 - Weekapaug Groove
4 - Anything But Me
5 - Reba

Disc 2
1 - Carini >
2 - Chalkdust Torture >
3 - Possum
4 - Wolfman's Brother* > jam (the sexy bump)** > Wolfman's Brother >
5 -Taste
Set 2
6 - Down With Disease >
7 - Wading in the Velvet Sea***


Disc 3
1 - Glide
2 - [band speech]
3 - Split Open and Melt > jam (blowing off steam) >
4 - Ghost

Disc 4
Set 3
1- Fast Enough for You
2 - Seven Below >
3 - Simple >
4 - Piper >
5 - Bruno**** ->
6 - Dickie Scotland***** >

Disc 5
1 - Wilson ->
2 - Slave to the Traffic Light
[fireworks]
Encore
3 - [Trey speech]
4 - The Curtain With


*The wolfman's brother is Fishman.
**Trey and Mike bring out their mothers and do the 'sexy bump' dance with them. Then later, 'sandwich' their manager, John Paluska with it.
***Page gets emotional.
****The band spontaneously writes a song to acknowledge their monitor engineer Mark "Bruno" Bradley. Other crew acknowledgements.
*****Same as above, but for Richard "Dickie Scotland" Glasgow.

- - - - shntool original files with sbe - - - - -
    length     expanded size   cdr  WAVE problems filename
     9:15.67       98059628    ---   --   -----   ph2004-08-15d1t01.wav
     2:33.51       27109196    ---   --   -----   ph2004-08-15d1t02.wav
    11:16.67      119404028    ---   --   -----   ph2004-08-15d1t03.wav
     5:23.55       57106604    ---   --   -----   ph2004-08-15d1t04.wav
    14:52.43      157449980    ---   --   -----   ph2004-08-15d1t05.wav
     5:49.18       61606432    -b-   --   -----   ph2004-08-15d2t01.wav
    13:39.15      144506924    ---   --   -----   ph2004-08-15d2t02.wav
     8:44.15       92468924    ---   --   -----   ph2004-08-15d2t03.wav
    12:56.54      137013452    ---   --   -----   ph2004-08-15d2t04.wav
    10:01.32      106091252    -b-   --   -----   ph2004-08-15d2t05.wav
    19:49.08      209758460    ---   --   -----   ph2004-08-15d2t06.wav
     6:29.38       68709020    ---   --   -----   ph2004-08-15d2t07.wav
     4:58.36       52651916    ---   --   -----   ph2004-08-15d3t01.wav
     4:19.06       45702572    -b-   --   -----   ph2004-08-15d3t02.wav
    30:52.08      326711660    ---   --   -----   ph2004-08-15d3t03.wav
    18:16.10      193357380    -b-   --   -----   ph2004-08-15d3t04.wav
     7:32.27       79795804    -b-   --   -----   ph2004-08-15d4t01.wav
    15:02.68      159272780    ---   --   -----   ph2004-08-15d4t02.wav
     6:19.20       66902684    ---   --   -----   ph2004-08-15d4t03.wav
     9:05.44       96241532    ---   --   -----   ph2004-08-15d4t04.wav
     7:55.20       83837084    ---   --   -----   ph2004-08-15d4t05.wav
     5:13.44       55317272    -b-   --   -----   ph2004-08-15d4t06.wav
     5:27.41       57780128    -b-   --   -----   ph2004-08-15d5t01.wav
    16:06.54      170529452    ---   --   -----   ph2004-08-15d5t02.wav
     3:55.09       41475752    -b-   --   -----   ph2004-08-15d5t03.wav
    20:01.35      211938764    ---   --   -----   ph2004-08-15d5t04.wav
   275:57.61     2920798680 B                     (totals for 26 files, 1.0000 overall compression ratio)

- - - - - - - shntool output with sbe fixed - - - - -
    length     expanded size   cdr  WAVE problems filename
     9:15.67       98059628    ---   --   -----   ph2004-08-15d1t01-fixed.wav
     2:33.51       27109196    ---   --   -----   ph2004-08-15d1t02-fixed.wav
    11:16.67      119404028    ---   --   -----   ph2004-08-15d1t03-fixed.wav
     5:23.55       57106604    ---   --   -----   ph2004-08-15d1t04-fixed.wav
    14:52.43      157449980    ---   --   -----   ph2004-08-15d1t05-fixed.wav
     5:49.18       61605980    ---   --   -----   ph2004-08-15d2t01-fixed.wav
    13:39.15      144506924    ---   --   -----   ph2004-08-15d2t02-fixed.wav
     8:44.15       92468924    ---   --   -----   ph2004-08-15d2t03-fixed.wav
    12:56.54      137013452    ---   --   -----   ph2004-08-15d2t04-fixed.wav
    10:01.31      106089356    ---   --   -----   ph2004-08-15d2t05-fixed.wav
    19:49.08      209758460    ---   --   -----   ph2004-08-15d2t06-fixed.wav
     6:29.38       68709020    ---   --   -----   ph2004-08-15d2t07-fixed.wav
     4:58.36       52651916    ---   --   -----   ph2004-08-15d3t01-fixed.wav
     4:19.07       45704108    ---   --   -----   ph2004-08-15d3t02-fixed.wav
    30:52.08      326711660    ---   --   -----   ph2004-08-15d3t03-fixed.wav
    18:16.10      193357964    ---   --   -----   ph2004-08-15d3t04-fixed.wav
     7:32.26       79793996    ---   --   -----   ph2004-08-15d4t01-fixed.wav
    15:02.68      159272780    ---   --   -----   ph2004-08-15d4t02-fixed.wav
     6:19.20       66902684    ---   --   -----   ph2004-08-15d4t03-fixed.wav
     9:05.44       96241532    ---   --   -----   ph2004-08-15d4t04-fixed.wav
     7:55.20       83837084    ---   --   -----   ph2004-08-15d4t05-fixed.wav
     5:13.45       55319084    ---   --   -----   ph2004-08-15d4t06-fixed.wav
     5:27.41       57779276    ---   --   -----   ph2004-08-15d5t01-fixed.wav
    16:06.54      170529452    ---   --   -----   ph2004-08-15d5t02-fixed.wav
     3:55.09       41475212    ---   --   -----   ph2004-08-15d5t03-fixed.wav
    20:01.36      211941116    ---   --   -----   ph2004-08-15d5t04-fixed.wav
   275:57.61     2920799416 B                     (totals for 26 files, 1.0000 overall compression ratio)

Show Checksums
ffp-orig
ph2004-08-15d1t01.flac:50fdbf5f6c70d704ddbd186aa2ce6a9c
ph2004-08-15d1t02.flac:f1ad8f61ada002cf1fa5d4ddf6d2eff0
ph2004-08-15d1t03.flac:584385954d9ece935ba8fcf9fc9d69ff
ph2004-08-15d1t04.flac:312c975fd0af8955fa0bd43281e80cf6
ph2004-08-15d1t05.flac:291821c4ade58fcc714cd888b794d709
ph2004-08-15d2t01.flac:13fdc9c81a4c8cdca9974356de2d489d
ph2004-08-15d2t02.flac:8ea132cfa7ebbb521682bbf567b5d8a5
ph2004-08-15d2t03.flac:141b21a317dd4a8e3713c832419776af
ph2004-08-15d2t04.flac:465f3def13d1c128b07208b6dd912f12
ph2004-08-15d2t05.flac:56693a1fbdf523234a0e4951408512eb
ph2004-08-15d2t06.flac:3c78ac0d56b4a182602bb0e3b64db887
ph2004-08-15d2t07.flac:82c694f24dfe979282b8099f4dda6131
ph2004-08-15d3t01.flac:f894d03fd22e2628f620972261690922
ph2004-08-15d3t02.flac:e58b7c77a623ebf67aaabf5805eb3483
ph2004-08-15d3t03.flac:c2cf03b3d16aebfc0495978e5f0a2045
ph2004-08-15d3t04.flac:ba3b71e2a8c019efde655e39800780f8
ph2004-08-15d4t01.flac:18d990da318fa45fd89f0e05c6dd7c65
ph2004-08-15d4t02.flac:7a218e5d03f6f13c179b8aa637ba5a80
ph2004-08-15d4t03.flac:5c521d92d1f05b90d49c44c0018d5f16
ph2004-08-15d4t04.flac:e26c67b2ea68129f4bcbda6e9c2370e9
ph2004-08-15d4t05.flac:66570ba14d268e45deb2f82581ffc49a
ph2004-08-15d4t06.flac:29bc39715c54b8a628aa75a0ac9befa2
ph2004-08-15d5t01.flac:0ae167c5c7377f5164d1843b83b74463
ph2004-08-15d5t02.flac:b5af86834c4b5d13143efff529c77189
ph2004-08-15d5t03.flac:deac67583825e58d41d6ca9ef27cd907
ph2004-08-15d5t04.flac:bc6156c200aced6a5c62b79c15a49742
ffp-sbefix
ph2004-08-15d1t01-fixed.flac:50fdbf5f6c70d704ddbd186aa2ce6a9c
ph2004-08-15d1t02-fixed.flac:f1ad8f61ada002cf1fa5d4ddf6d2eff0
ph2004-08-15d1t03-fixed.flac:584385954d9ece935ba8fcf9fc9d69ff
ph2004-08-15d1t04-fixed.flac:312c975fd0af8955fa0bd43281e80cf6
ph2004-08-15d1t05-fixed.flac:291821c4ade58fcc714cd888b794d709
ph2004-08-15d2t01-fixed.flac:8a1081b6c70971d585f3e1debce66c53
ph2004-08-15d2t02-fixed.flac:85370dd82a99f18a6665ce5dc2e51199
ph2004-08-15d2t03-fixed.flac:333fe2cb5572a65b94b6160cd8ef6fdd
ph2004-08-15d2t04-fixed.flac:f3d8be5a7b4b7df384490639d773313f
ph2004-08-15d2t05-fixed.flac:d2095a10f9699328c0d5baf973ca77cb
ph2004-08-15d2t06-fixed.flac:f6b5e998eec288b5c8106e0844843468
ph2004-08-15d2t07-fixed.flac:3ee6472f774b394c9ee9b09d238acb95
ph2004-08-15d3t01-fixed.flac:e92f1047e5ff2005fb09ee05930f6de0
ph2004-08-15d3t02-fixed.flac:8e97418caa5a6253454cfcf93d7a9310
ph2004-08-15d3t03-fixed.flac:294a486b6f33d7da451dcdce0185019c
ph2004-08-15d3t04-fixed.flac:69472968d0201f2b7227f093bd7665aa
ph2004-08-15d4t01-fixed.flac:5974c8b5071926d6a469c67483666396
ph2004-08-15d4t02-fixed.flac:92959bd6a21d9e4dbe75d0ae0e656665
ph2004-08-15d4t03-fixed.flac:da1224653e6bff189490725774ddfc48
ph2004-08-15d4t04-fixed.flac:a4e1064b4551aa6b55f36e2e27d121cb
ph2004-08-15d4t05-fixed.flac:cc686efe295fb9efdea28704b454bf3c
ph2004-08-15d4t06-fixed.flac:bfdbaabf6cc0674652b7382793d83af2
ph2004-08-15d5t01-fixed.flac:ed3236b1a345623f08038eb90cf71b5f
ph2004-08-15d5t02-fixed.flac:f737d0ee0e7f9c5e360ae14db5a7fd02
ph2004-08-15d5t03-fixed.flac:1577f8fc1681dd3d9cf8800c0c03e03f
ph2004-08-15d5t04-fixed.flac:d7fe4f79e2d8b3792ac526cce12fe158

Comments
Add Comment
Other Sources (comments)
Coventry "From the... (0) Neumann ak30 (omni) > lc3ka... (0) FOB Neumann km140 (ORTF) >... (0) Neumann km150 (ORTF) >... (0) AKG 483 -> V3 -> AD2K ->... (0)
Date User Comment