Browse Collections Artists Sources   Search Dates

Add Show    List Management    Help


Phish 12/04/92
Mississippi Nights, St. Louis, MO
Comments Add Comment    Source Collectors    Add to Collection    Add to Want List    History
Source # 25827 Other Sources
Entered by Matt Vernon
Checksums ffp , wav-md5 , shn-md5 , st5
Disc Counts 2 / 3
Media Size
Date Circulated
Date Added
09/14/2004
09/17/2004
Source Summary PZM (10' apart) > Marantz PMD-430 (w/ DBX NR) > Cass/0; Cass/0 > Marantz PMD-430 (w/ DBX NR) > Audiomedia III @44.1kHz > Protools 4.1.1 > SHN > xACT v1.5.9 > FLAC 
Source Information - Download Text | Download Zip
NOTE: Sector Boundary Errors fixed and SHN > FLAC conversion done in June 2007

Both the updated info file, and the original info file are contained in this entry

the Updated FLAC Fingerprint (ffp) has also been added to this entry, and for reference, the old SHN md5 and the old WAV md5 have been retained as well.

------------------------------------------------------------------------------------
UPDATED INFO FILE

Band : Phish
Date : December 4, 1992
City : Saint Louis, Missouri, United States Of America
Venue : Mississippi Nights

-=-=-=-=-=-=-=-=-=-=-=-=-=-=-=-=-=-=-=-=-=-=-=-=-

Recorded (December 1992):
Realistic PZM microphones (12v each, even with SBD, spread approx 10') > Marantz PMD-430 (DBX NR ENCODE)> Maxell XLII, XLII-S CrO2 master cassettes

-=-=-=-=-=-=-=-=-=-=-=-=-=-=-=-=-=-=-=-=-=-=-=-=-

Transcribed (September 2004):
Maxell cassette masters> Marantz PMD430 Cassette deck (DBX NR DECODE) > Audiomedia III PCI card @44.1 KHz> Powermac G3/266 > Protools 4.1.1 for tracking > .WAV files > Shorten 1.1a3 > .SHN files + MD5's

(June 2007):
SHN files > xACT v1.5.9 (SBE adjustment + flac encoding) > FLAC files

-=-=-=-=-=-=-=-=-=-=-=-=-=-=-=-=-=-=-=-=-=-=-=-=-

Setlist with times:

Disc 1 Total: 73:31.33
Set I:
d1t01 4:15 Llama
d1t02 8:42 Foam
d1t03 2:51 Poor Heart
d1t04 9:40 Stash
d1t05 4:32 Glide
d1t06 4:07 Sparkle
d1t07 5:38 Fast Enough For You (master cassette flip)
d1t08 8:28 Maze
d1t09 20:36 Colonel Forbin's Ascent > Fly Famous Mockingbird
d1t10 4:37 Cavern

Disc 2 Total: 76:12.38
set II:
d2t01 6:05 Suzie Greenberg >
d2t02 14:14 David Bowie
d2t03 9:27 Esther
d2t04 11:48 Possum (master cassette flip)
d2t05 8:06 It's Ice
d2t06 9:11 The Squirming Coil
d2t07 3:05 Carolina
d2t08 14:12 Harry Hood

Disc 3 Total: 38:48.17
d3t01 6:07 HYHU -> Faht (master cassette swap)
d3t02 1:04 HYHU outtro
d3t03 19:54 You Enjoy Myself
Encores:
d3t04 6:01 Fee
d3t05 5:40 Rocky Top


-=-=-=-=-=-=-=-=-=-=-=-=-=-=-=-=-=-=-=-=-=-=-=-=-

shntool results:

length expanded size cdr WAVE problems filename
4:15.00 44982044 --- -- ---xx d1t01.flac
8:42.14 92113772 --- -- ---xx d1t02.flac
2:51.48 30277340 --- -- ---xx d1t03.flac
9:40.30 102382604 --- -- ---xx d1t04.flac
4:32.72 48150188 --- -- ---xx d1t05.flac
4:07.14 43603772 --- -- ---xx d1t06.flac
5:38.51 59743196 --- -- ---xx d1t07.flac
8:28.60 89752364 --- -- ---xx d1t08.flac
20:36.55 218159804 --- -- ---xx d1t09.flac
4:37.64 49013372 --- -- ---xx d1t10.flac
6:05.61 64529516 --- -- ---xx d2t01.flac
14:14.27 150709148 --- -- ---xx d2t02.flac
9:27.52 100141148 --- -- ---xx d2t03.flac
11:48.39 124982972 --- -- ---xx d2t04.flac
8:06.10 85753964 --- -- ---xx d2t05.flac
9:11.45 97302284 --- -- ---xx d2t06.flac
3:05.60 32775164 --- -- ---xx d2t07.flac
14:12.44 150396332 --- -- ---xx d2t08.flac
6:07.34 64818812 --- -- ---xx d3t01.flac
1:04.48 11402540 --- -- ---xx d3t02.flac
19:54.36 210706316 --- -- ---xx d3t03.flac
6:01.17 63720428 --- -- ---xx d3t04.flac
5:40.32 60051308 --- -- ---xx d3t05.flac
188:32.13 1995468388 B (totals for 23 files, 0.5601 overall compression ratio)




------------------------------------------------------------------------------------
ORIGINAL INFO FILE


Band : Phish
Date : December 4, 1992
City : St. Louis MO, United States Of America
Venue : Mississippi Nights

-=-=-=-=-=-=-=-=-=-=-=-=-=-=-=-=-=-=-=-=-=-=-=-=-

Recorded (December 1992):
Realistic PZM microphones (12v each, even with SBD, spread approx 10') >  Marantz PMD-430 (DBX NR ENCODE)> Maxell XLII, XLII-S CrO2 master cassettes

-=-=-=-=-=-=-=-=-=-=-=-=-=-=-=-=-=-=-=-=-=-=-=-=-

Transcribed (September 2004):
Maxell cassette masters> Marantz PMD430 Cassette deck (DBX NR DECODE) > Audiomedia III PCI card @44.1 KHz> Powermac G3/266 > Protools 4.1.1 for tracking > .WAV files > Shorten 1.1a3 > .SHN files + MD5's

-=-=-=-=-=-=-=-=-=-=-=-=-=-=-=-=-=-=-=-=-=-=-=-=-

Setlist with times:

Set I:
Phish1992-12-04t01 4:15 Llama
Phish1992-12-04t02 8:42 Foam
Phish1992-12-04t03 2:51 Poor Heart
Phish1992-12-04t04 9:40 Stash
Phish1992-12-04t05 4:32 Glide
Phish1992-12-04t06 4:07 Sparkle
Phish1992-12-04t07 5:38 Fast Enough For You
(cassette flip)
Phish1992-12-04t08 8:28 Maze
Phish1992-12-04t09 20:36 Colonel Forbin's Ascent > Fly Famous Mockingbird
Phish1992-12-04t10 4:37 Cavern

set II:
Phish1992-12-04t11 6:05 Suzie Greenberg >
Phish1992-12-04t12 14:14 David Bowie
Phish1992-12-04t13 9:27 Esther
Phish1992-12-04t14 11:48 Possum
(cassette flip)
Phish1992-12-04t15 8:06 It's Ice
Phish1992-12-04t16 9:11 The Squirming Coil
Phish1992-12-04t17 3:05 Carolina
Phish1992-12-04t18 14:12 Harry Hood
Phish1992-12-04t19 6:07 HYHU -> Faht
(cassette swap)
Phish1992-12-04t20 1:04 HYHU outtro
Phish1992-12-04t21 19:54 You Enjoy Myself

Encores:
Phish1992-12-04t22 6:01 Fee
Phish1992-12-04t23 5:40 Rocky Top

-=-=-=-=-=-=-=-=-=-=-=-=-=-=-=-=-=-=-=-=-=-=-=-=-

list of files:

Phish1992-12-04INFO.txt (this file)
Phish1992-12-04SHN.md5
Phish1992-12-04WAV.md5
Phish1992-12-04t01.shn
Phish1992-12-04t02.shn
Phish1992-12-04t03.shn
Phish1992-12-04t04.shn
Phish1992-12-04t05.shn
Phish1992-12-04t06.shn
Phish1992-12-04t07.shn
Phish1992-12-04t08.shn
Phish1992-12-04t09.shn
Phish1992-12-04t10.shn
Phish1992-12-04t11.shn
Phish1992-12-04t12.shn
Phish1992-12-04t13.shn
Phish1992-12-04t14.shn
Phish1992-12-04t15.shn
Phish1992-12-04t16.shn
Phish1992-12-04t17.shn
Phish1992-12-04t18.shn
Phish1992-12-04t19.shn
Phish1992-12-04t20.shn
Phish1992-12-04t21.shn
Phish1992-12-04t22.shn
Phish1992-12-04t23.shn


-=-=-=-=-=-=-=-=-=-=-=-=-=-=-=-=-=-=-=-=-=-=-=-=-

MD5 Values:

.SHN files
1fc7d7da73470290dd3181043fe5f842 *Phish1992-12-04t01.shn
c093869220c7d690b7e5303bb464050a *Phish1992-12-04t08.shn
6b526978d2b1b7dceed8ac4fd7ac7071 *Phish1992-12-04t07.shn
bd3bc7f70f435e2f4cc689ae33c34f14 *Phish1992-12-04t06.shn
8fcbcda7bd8208ad5e63bcfec3fed371 *Phish1992-12-04t05.shn
c76df87baa0c6eefdf97354dadefe0d6 *Phish1992-12-04t04.shn
30e9c6ec689cf9d68565ee401746fd38 *Phish1992-12-04t03.shn
21234f2b60f4d44ff8810fd228f4ac0e *Phish1992-12-04t02.shn
61774179d6579f4cfbec3e7745d5a6f6 *Phish1992-12-04t23.shn
3068c60916805f34e31dac86adc3fa53 *Phish1992-12-04t22.shn
acdd95da20a00b30ea0eccbea23856c5 *Phish1992-12-04t21.shn
d2651fdf3c0facd45495f85487d02e9f *Phish1992-12-04t20.shn
08f3dd5b795d0c0233007cb9c9d7138a *Phish1992-12-04t19.shn
2bbff90eab3e7465d7a3ef43ea9d6ae6 *Phish1992-12-04t18.shn
0c510d228a4f9209fb3898ff36fd3081 *Phish1992-12-04t17.shn
2a4eb2d7b44eeadcbcad519360cad15a *Phish1992-12-04t16.shn
dd4bc540e7a567b33279b6af22d1040e *Phish1992-12-04t14.shn
39f81e9bed81d2e0f40fe0491a48eb4a *Phish1992-12-04t15.shn
b1329bc5c4807ed355fbe8e0230f3491 *Phish1992-12-04t13.shn
ea8bac6eb3d55691e0bc27dc830aa63b *Phish1992-12-04t12.shn
de0c446ea85ce404b3ff69d4e30e1786 *Phish1992-12-04t11.shn
5ff8ac5d4152ed373be7fe79ff2f6717 *Phish1992-12-04t10.shn
55cff77d776cd3f9e18e4f4f9b9a08e6 *Phish1992-12-04t09.shn

.WAV files
ab8efefe2ff8edf2f3068cd40e1033b8 *Phish1992-12-04t01.wav
853e1c6d368c373f289035296e6b9236 *Phish1992-12-04t02.wav
c24c2b1475e734b68144eaf612886598 *Phish1992-12-04t03.wav
b841a754cfdad650b59b79337a746226 *Phish1992-12-04t05.wav
3fe207ca511652da77b7553bf6472cbb *Phish1992-12-04t07.wav
1072cc66e10cda89efc2c4755f21e8a7 *Phish1992-12-04t09.wav
f452ee469494ae8e0088961bc58ecea1 *Phish1992-12-04t11.wav
69c4a1296df1305c1d3b0217cb013d27 *Phish1992-12-04t13.wav
17104d8c8613429c7e89b1160e2600b7 *Phish1992-12-04t15.wav
1bea927a973e5b661e9d300469f3b3b7 *Phish1992-12-04t17.wav
edb9082f62b4b6c32f028efdd3388c33 *Phish1992-12-04t19.wav
55e3ad5ae4ae1db6eac180c0ce620bf1 *Phish1992-12-04t21.wav
7b55a847b05ec3346ef7eee47bdcdec9 *Phish1992-12-04t23.wav
cd4d5f2963025c7eeee51029ca3c7b28 *Phish1992-12-04t22.wav
0a705f1bf950a66ad99ee7a118dcd74a *Phish1992-12-04t20.wav
4a72caa6b887cd860857735a8c8a0472 *Phish1992-12-04t18.wav
bc2faeb489ebaf1f4a46918e01e9e05c *Phish1992-12-04t16.wav
37296a086d4cffc0850f5de6439f5c05 *Phish1992-12-04t14.wav
b54c849243ef5bb79bb80699264af08f *Phish1992-12-04t12.wav
41ad1e65e4f5f0c62849de32f02334da *Phish1992-12-04t10.wav
5f7a8418be8b07fcf677c1a0655d87f4 *Phish1992-12-04t08.wav
763799fab6a4776dda4294e6bcc72a2f *Phish1992-12-04t06.wav
6c87f3daa433bdcdf42ca6cc74fe9f13 *Phish1992-12-04t04.wav

-=-
Show Checksums
ffp
d1t01.flac:f219137dd266396c3b2af57e539b179b
d1t02.flac:210ae55033a83853087a614bb15e961f
d1t03.flac:fe46f60d70383c7dba70aedee254e7ed
d1t04.flac:1c151de77f47ae82dc44505ea4a747e6
d1t05.flac:ccf3f6f426418ac8b58ae7676dc832cd
d1t06.flac:f619e5df3acf21a0f3031e3eb0e2f292
d1t07.flac:e4150eb1ae65e6e4fa162c1da98ef852
d1t08.flac:8849ca235bcfe9148f9245e8c033c796
d1t09.flac:76b8d255056a25273c3ac1d4ceca971a
d1t10.flac:9ac8785573343f8c762219a7e896b04d
d2t01.flac:7266e38e73c41a38dd5b692dedcce739
d2t02.flac:e65bf17a9efc15eb470b63fc9716c8b8
d2t03.flac:da0a8580f51468f27b1f050c68b8e11a
d2t04.flac:52230342508e1d21544603cfccdf76d5
d2t05.flac:85a0bb3c7dacb412f105303682cfab0d
d2t06.flac:0d7e1192efacfdfaaa79212e3364a497
d2t07.flac:0312603f28d884ae0d3b9d214eea4fc6
d2t08.flac:8315b4d8feb7efb34def2855544d8fd2
d3t01.flac:d19b0240b1170a3a010803bbf7879796
d3t02.flac:2d9fecfed67428bbcaec88162bf01bfb
d3t03.flac:e2d9ee68a24624e9747bb8b2feabd928
d3t04.flac:6098fef577755a2a227018169c36c4ec
d3t05.flac:060bd2b8d4cda0e57a9931d53546c551
wav-md5
ab8efefe2ff8edf2f3068cd40e1033b8 *Phish1992-12-04t01.wav
853e1c6d368c373f289035296e6b9236 *Phish1992-12-04t02.wav
c24c2b1475e734b68144eaf612886598 *Phish1992-12-04t03.wav
b841a754cfdad650b59b79337a746226 *Phish1992-12-04t05.wav
3fe207ca511652da77b7553bf6472cbb *Phish1992-12-04t07.wav
1072cc66e10cda89efc2c4755f21e8a7 *Phish1992-12-04t09.wav
f452ee469494ae8e0088961bc58ecea1 *Phish1992-12-04t11.wav
69c4a1296df1305c1d3b0217cb013d27 *Phish1992-12-04t13.wav
17104d8c8613429c7e89b1160e2600b7 *Phish1992-12-04t15.wav
1bea927a973e5b661e9d300469f3b3b7 *Phish1992-12-04t17.wav
edb9082f62b4b6c32f028efdd3388c33 *Phish1992-12-04t19.wav
55e3ad5ae4ae1db6eac180c0ce620bf1 *Phish1992-12-04t21.wav
7b55a847b05ec3346ef7eee47bdcdec9 *Phish1992-12-04t23.wav
cd4d5f2963025c7eeee51029ca3c7b28 *Phish1992-12-04t22.wav
0a705f1bf950a66ad99ee7a118dcd74a *Phish1992-12-04t20.wav
4a72caa6b887cd860857735a8c8a0472 *Phish1992-12-04t18.wav
bc2faeb489ebaf1f4a46918e01e9e05c *Phish1992-12-04t16.wav
37296a086d4cffc0850f5de6439f5c05 *Phish1992-12-04t14.wav
b54c849243ef5bb79bb80699264af08f *Phish1992-12-04t12.wav
41ad1e65e4f5f0c62849de32f02334da *Phish1992-12-04t10.wav
5f7a8418be8b07fcf677c1a0655d87f4 *Phish1992-12-04t08.wav
763799fab6a4776dda4294e6bcc72a2f *Phish1992-12-04t06.wav
6c87f3daa433bdcdf42ca6cc74fe9f13 *Phish1992-12-04t04.wav
shn-md5
1fc7d7da73470290dd3181043fe5f842 *Phish1992-12-04t01.shn
c093869220c7d690b7e5303bb464050a *Phish1992-12-04t08.shn
6b526978d2b1b7dceed8ac4fd7ac7071 *Phish1992-12-04t07.shn
bd3bc7f70f435e2f4cc689ae33c34f14 *Phish1992-12-04t06.shn
8fcbcda7bd8208ad5e63bcfec3fed371 *Phish1992-12-04t05.shn
c76df87baa0c6eefdf97354dadefe0d6 *Phish1992-12-04t04.shn
30e9c6ec689cf9d68565ee401746fd38 *Phish1992-12-04t03.shn
21234f2b60f4d44ff8810fd228f4ac0e *Phish1992-12-04t02.shn
61774179d6579f4cfbec3e7745d5a6f6 *Phish1992-12-04t23.shn
3068c60916805f34e31dac86adc3fa53 *Phish1992-12-04t22.shn
acdd95da20a00b30ea0eccbea23856c5 *Phish1992-12-04t21.shn
d2651fdf3c0facd45495f85487d02e9f *Phish1992-12-04t20.shn
08f3dd5b795d0c0233007cb9c9d7138a *Phish1992-12-04t19.shn
2bbff90eab3e7465d7a3ef43ea9d6ae6 *Phish1992-12-04t18.shn
0c510d228a4f9209fb3898ff36fd3081 *Phish1992-12-04t17.shn
2a4eb2d7b44eeadcbcad519360cad15a *Phish1992-12-04t16.shn
dd4bc540e7a567b33279b6af22d1040e *Phish1992-12-04t14.shn
39f81e9bed81d2e0f40fe0491a48eb4a *Phish1992-12-04t15.shn
b1329bc5c4807ed355fbe8e0230f3491 *Phish1992-12-04t13.shn
ea8bac6eb3d55691e0bc27dc830aa63b *Phish1992-12-04t12.shn
de0c446ea85ce404b3ff69d4e30e1786 *Phish1992-12-04t11.shn
5ff8ac5d4152ed373be7fe79ff2f6717 *Phish1992-12-04t10.shn
55cff77d776cd3f9e18e4f4f9b9a08e6 *Phish1992-12-04t09.shn
st5
1f0a99a5b85a5e2de06c85b6c550e9e6 [shntool] phish1992-12-04t01.shn
cc042764698c987af377070900247c72 [shntool] phish1992-12-04t02.shn
36e3e5b6e708a656c8257be5b13cfc47 [shntool] phish1992-12-04t03.shn
2291d153774d125b3e8d99ac6083509f [shntool] phish1992-12-04t04.shn
dd6f8cd0e07c6524a0e2208eef3f3f64 [shntool] phish1992-12-04t05.shn
4d970c882e0af8a935c49769c4a341c2 [shntool] phish1992-12-04t06.shn
341747dd73dab6b3974363e3c2311859 [shntool] phish1992-12-04t07.shn
ca4caaa668e6b43d7d48e57734eb1446 [shntool] phish1992-12-04t08.shn
ffdf5ec4c5f0f84ca0a6e77458e59c35 [shntool] phish1992-12-04t09.shn
2aff4b1056d0ed7d20bab71a9ca04b10 [shntool] phish1992-12-04t10.shn
16bf240cc663844dc55b0d3ffc0a62bd [shntool] phish1992-12-04t11.shn
0683c3e345a73bcfb1087f9f7cb62561 [shntool] phish1992-12-04t12.shn
9adcb2e6d26c13815682c0c5cf9b54ac [shntool] phish1992-12-04t13.shn
0ccca80240895ffb94c0d549cac5e6d4 [shntool] phish1992-12-04t14.shn
40e561abb5f5f0b1d67c0fbe064cfcfc [shntool] phish1992-12-04t15.shn
d6e93ca7848dca6108107efd88634b09 [shntool] phish1992-12-04t16.shn
a0f952489bce3a0de7f57c9ca13ad421 [shntool] phish1992-12-04t17.shn
a03cacf1c0958396d9f5596c5fa1dbf8 [shntool] phish1992-12-04t18.shn
5cb43601a1685b8b2a1b0a8492c9d6a7 [shntool] phish1992-12-04t19.shn
d7fb72cc9c80c1fb03a6d2a6d89f2aae [shntool] phish1992-12-04t20.shn
e4b3bc115d0553581bede3e6746531c7 [shntool] phish1992-12-04t21.shn
e6c7e7aa77bd1c1125c7f6878c5c5876 [shntool] phish1992-12-04t22.shn
42f107b3ebbe0b0112abd609264c9004 [shntool] phish1992-12-04t23.shn

Comments
Add Comment
Other Sources (comments)
Nak 300's > Marantz PMD430... (0)
Date User Comment
09/17/2004 car there is a sector boundary error for every track

length expanded size cdr WAVE problems filename
4:15.01 44984256 -b- -- ---xx Phish1992-12-04t01.shn
8:42.14 92112604 -b- -- ---xx Phish1992-12-04t02.shn
2:51.48 30276744 -b- -- ---xx Phish1992-12-04t03.shn
9:40.30 102382816 -b- -- ---xx Phish1992-12-04t04.shn
4:32.72 48151120 -b- -- ---xx Phish1992-12-04t05.shn
4:07.14 43602980 -b- -- ---xx Phish1992-12-04t06.shn
5:38.51 59744188 -b- -- ---xx Phish1992-12-04t07.shn
8:28.60 89751856 -b- -- ---xx Phish1992-12-04t08.shn
20:36.55 218160852 -b- -- ---xx Phish1992-12-04t09.shn
4:37.63 49012096 -b- -- ---xx Phish1992-12-04t10.shn
6:05.61 64529976 -b- -- ---xx Phish1992-12-04t11.shn
14:14.27 150709448 -b- -- ---xx Phish1992-12-04t12.shn
9:27.52 100141004 -b- -- ---xx Phish1992-12-04t13.shn
11:48.38 124981764 -b- -- ---xx Phish1992-12-04t14.shn
8:06.10 85753824 -b- -- ---xx Phish1992-12-04t15.shn
9:11.46 97304152 -b- -- ---xx Phish1992-12-04t16.shn
3:05.60 32774768 -b- -- ---xx Phish1992-12-04t17.shn
14:12.44 150395584 -b- -- ---xx Phish1992-12-04t18.shn
6:07.34 64818508 -b- -- ---xx Phish1992-12-04t19.shn
1:04.48 11402372 -b- -- ---xx Phish1992-12-04t20.shn
19:54.36 210705976 -b- -- ---xx Phish1992-12-04t21.shn
6:01.17 63720548 -b- -- ---xx Phish1992-12-04t22.shn
5:40.31 60048952 -b- -- ---xx Phish1992-12-04t23.shn
188:32.12 1995466388 B (totals for 23 files, 0.6020 overall compression ratio)

09/23/2004 Bill Mitchell my disk tracking:
d1 - t1-10 (all of set 1) 73:33
d2 - t11-18 76:14
d3 - t19-23 38:50