Browse Collections Artists Sources   Search Dates

Add Show    List Management    Help


Grateful Dead 10/16/81
Club Melk Weg, Amsterdam, Netherlands
Comments Add Comment    Source Collectors    Add to Collection    Add to Want List    History
Source # 25938 Other Sources
Entered by dr.unclear
Checksums shn-md5 , orig-shn-md5 , st5
Disc Counts 1 / 2
Media Size
Date Circulated
Date Added
09/21/2004
09/23/2004
Source Summary Source:Senheiser-pro-direction.>New Marantz cass.rec.(looking like SonyTC-D5>TDK-SA-C90(master tape) Master cass.>SonyTC-D5M>CDwave>Mkw>Shn. ; upgrade in circulation 
  Archive
Source Information - Download Text | Download Zip
Grateful Dead - 1981-10-16
Melkweg, Amsterdam, Netherlands
O.O.P.S.Concerts(second day)
Happy B-Day Bob (34th)

Aud master cassette !

Acoustic Set:
d1t01 - On The Road Again
d1t02 - Dire Wolf
d1t03 - Monkey And The Engineer
d1t04 - Bird Song
d1t05 - Cassidy
d1t06 - Oh Babe It Ain't No Lie
d1t07 - The Race Is On
d1t08 - Ripple

Electric Set:
d2t01 - Playin'In The Band >
d2t02 - Hully Gully >
d2t03 - The Wheel >
d2t04 - Samson & Delilah
d2t05 - Gloria >
d2t06 - Turn On Your Lovelight >
d2t07 - Going Down The Road Feelin' Bad >     *
d2t08 - Playin' In The Band >
d2t09 - Black Peter >
d2t10 - Sugar Magnolia

* Tape flip

per Deadbase 9:
OOPS Concert, Bob's 34th b-day
last Ain't No Lie 12.6.80 [74]
final Ripple until 9.3.88 [459]
only Hully Gully
first Gloria since '65
last Lovelight 5.24.72 [581]

Source:Senheiser-pro-direction.>New Marantz cass.rec.(looking like
SonyTC-D5>TDK-SA-C90(master tape)
Master cass.>SonyTC-D5M>CDwave>Mkw>Shn

Thanks Michel The belgian Deadhead! For taping and seeding those gems!

This is a short but great show.  Enjoy!


SHNTOOL LEN OUTPUT:

    length     expanded size    cdr  WAVE problems  fmt   ratio  filename
     4:20.45       45969884 B   ---   --   ---xx    shn  0.5834  gd1981-10-16d1t01.shn
     3:27.40       36608924 B   ---   --   ---xx    shn  0.6103  gd1981-10-16d1t02.shn
     2:43.00       28753244 B   ---   --   ---xx    shn  0.6112  gd1981-10-16d1t03.shn
     9:27.49      100134092 B   ---   --   ---xx    shn  0.6274  gd1981-10-16d1t04.shn
     5:08.40       54425324 B   ---   --   ---xx    shn  0.6246  gd1981-10-16d1t05.shn
     5:54.53       62570300 B   ---   --   ---xx    shn  0.5615  gd1981-10-16d1t06.shn
     3:18.43       35028380 B   ---   --   ---xx    shn  0.6165  gd1981-10-16d1t07.shn
     4:21.46       46148636 B   ---   --   ---xx    shn  0.5927  gd1981-10-16d1t08.shn
    11:36.31      122847356 B   ---   --   ---xx    shn  0.6121  gd1981-10-16d2t01.shn
     3:23.39       35900972 B   ---   --   ---xx    shn  0.6116  gd1981-10-16d2t02.shn
     5:51.15       61951724 B   ---   --   ---xx    shn  0.5874  gd1981-10-16d2t03.shn
     7:42.45       81602684 B   ---   --   ---xx    shn  0.6065  gd1981-10-16d2t04.shn
     7:34.65       80238524 B   ---   --   ---xx    shn  0.6005  gd1981-10-16d2t05.shn
     6:11.05       65456204 B   ---   --   ---xx    shn  0.6232  gd1981-10-16d2t06.shn
     4:53.36       51769916 B   ---   --   ---xx    shn  0.6353  gd1981-10-16d2t07.shn
     4:40.51       49511996 B   ---   --   ---xx    shn  0.5667  gd1981-10-16d2t08.shn
     9:32.34      100980812 B   ---   --   ---xx    shn  0.5472  gd1981-10-16d2t09.shn
     9:23.16       99350876 B   ---   --   ---xx    shn  0.6138  gd1981-10-16d2t10.shn
   109:31.53     1159249848 B                            0.6011  (18 files)
Show Checksums
shn-md5
44d4582030b7185d4bcfcaed5490c31d *gd1981-10-16d1t01.shn
f110d832db4bff957a77429c5f9ed7d8 *gd1981-10-16d1t02.shn
39e33f96c0263c6b9e1a77e01cd5e105 *gd1981-10-16d1t03.shn
ddb2ab6658961dd5a848deac895704c1 *gd1981-10-16d1t04.shn
e2b0d14ded380806c21695344f3c791f *gd1981-10-16d1t05.shn
e61bf0f45edf6d98c1063cdbbe91e42e *gd1981-10-16d1t06.shn
3cd5b01265594c6a7afd1db37802ad92 *gd1981-10-16d1t07.shn
3d9e78e785a5d4cb0f455fb0bee3c3e6 *gd1981-10-16d1t08.shn
d935ffea0e267d7687202e2c2f4d4cd1 *gd1981-10-16d2t01.shn
59d13e1c1a4130e0cce74869212f4d53 *gd1981-10-16d2t02.shn
064672cf3e6f17a3df5cafe2cd836b71 *gd1981-10-16d2t03.shn
b03c04373926f8ca6b39bc1257b628bd *gd1981-10-16d2t04.shn
a65af950e130433bf94faba2371d19ba *gd1981-10-16d2t05.shn
cb040cc66c3afd27d1d6bcafeba4fdf4 *gd1981-10-16d2t06.shn
cd28255ecd9bf5b8640e2d39dc43b3a7 *gd1981-10-16d2t07.shn
f28bcbe8d4ec89c3c25d4a3d1ea1368f *gd1981-10-16d2t08.shn
9aeb873dd330693c6fad7e4deb9ad3e4 *gd1981-10-16d2t09.shn
35a6cf0bd8e1a2b39362babce135db85 *gd1981-10-16d2t10.shn
orig-shn-md5
3d9e78e785a5d4cb0f455fb0bee3c3e6 *gd1981-10-16 d1t08.shn
f110d832db4bff957a77429c5f9ed7d8 *gd1981-10-16 d1t02.shn
39e33f96c0263c6b9e1a77e01cd5e105 *gd1981-10-16 d1t03.shn
ddb2ab6658961dd5a848deac895704c1 *gd1981-10-16 d1t04.shn
e2b0d14ded380806c21695344f3c791f *gd1981-10-16 d1t05.shn
e61bf0f45edf6d98c1063cdbbe91e42e *gd1981-10-16 d1t06.shn
3cd5b01265594c6a7afd1db37802ad92 *gd1981-10-16 d1t07.shn
44d4582030b7185d4bcfcaed5490c31d *gd1981-10-16 d1t01.shn
35a6cf0bd8e1a2b39362babce135db85 *gd1981-10-16 d2t10.shn
59d13e1c1a4130e0cce74869212f4d53 *gd1981-10-16 d2t02.shn
064672cf3e6f17a3df5cafe2cd836b71 *gd1981-10-16 d2t03.shn
b03c04373926f8ca6b39bc1257b628bd *gd1981-10-16 d2t04.shn
a65af950e130433bf94faba2371d19ba *gd1981-10-16 d2t05.shn
cb040cc66c3afd27d1d6bcafeba4fdf4 *gd1981-10-16 d2t06.shn
cd28255ecd9bf5b8640e2d39dc43b3a7 *gd1981-10-16 d2t07.shn
f28bcbe8d4ec89c3c25d4a3d1ea1368f *gd1981-10-16 d2t08.shn
9aeb873dd330693c6fad7e4deb9ad3e4 *gd1981-10-16 d2t09.shn
d935ffea0e267d7687202e2c2f4d4cd1 *gd1981-10-16 d2t01.shn
st5
23be68b561b09e11e707206bd31e467a [shntool] gd1981-10-16d1t01.shn
801b45dbead44e820afb07d45b02eb46 [shntool] gd1981-10-16d1t02.shn
00c69e96710902c4c425fa7ffa6baaab [shntool] gd1981-10-16d1t03.shn
c7008c169537f2e224a9233453cdb2a6 [shntool] gd1981-10-16d1t04.shn
17dc35a57108292ae674cbbe6f537490 [shntool] gd1981-10-16d1t05.shn
d28f8cdc61e13bb00e8081d9e98fdcd2 [shntool] gd1981-10-16d1t06.shn
90cde589c1688409d498fd8f9f57dc7d [shntool] gd1981-10-16d1t07.shn
56526ce3078c95f238fd15d883586042 [shntool] gd1981-10-16d1t08.shn
803ae9171d3d29978439cfa5a1e69bf9 [shntool] gd1981-10-16d2t01.shn
9b95037941dc18db2c8732c44e19fb55 [shntool] gd1981-10-16d2t02.shn
969b47e27759d694a1473e72343a19f2 [shntool] gd1981-10-16d2t03.shn
56ec591f8c2a2823c6f2423187e28099 [shntool] gd1981-10-16d2t04.shn
6aad3102ed358094fd2512d209d65d54 [shntool] gd1981-10-16d2t05.shn
d7336688f67d6145a1c2387094e8e71a [shntool] gd1981-10-16d2t06.shn
faa88b7cadf88989c36e7250b9ad265e [shntool] gd1981-10-16d2t07.shn
03d499471b2644598e224c7b6b284f20 [shntool] gd1981-10-16d2t08.shn
4b2ab6d4c0cd00bac7340abe5bb731cc [shntool] gd1981-10-16d2t09.shn
e8aa54a3d846ad934c596d2d47de6f2b [shntool] gd1981-10-16d2t10.shn

Comments
Add Comment
Other Sources (comments)
SBD:MCASS> CASS> DAT> CDR,... (1) flac16; Aud master... (1) flac16; Sick Bits... (0) flac16; Recording... (0) flac16; Matrix by... (0) flac16; Beyer M-160... (1) flac24; AUD: 2x... (0) flac16; AUD: 2x... (0)
Date User Comment