Browse Collections Artists Sources   Search Dates

Add Show    List Management    Help


Grateful Dead 05/29/80
Des Moines Civic Center, Des Moines, IA
Comments Add Comment    Source Collectors    Add to Collection    Add to Want List    History
Source # 25993 Other Sources
Entered by dr.unclear
Checksums shn-md5 , st5
Disc Counts 1 / 2
Media Size
Date Circulated
Date Added
09/27/2004
10/06/2004
Source Summary sets 1p,2; Nak 300, FOB right center of stage> Nak 550 > DAT, taper unknown; Transfer: DATs (48) > Sony 60ES > M-Audio Audiophile USB > CDWAV > Golwave minor edits and resampling > CDWAV tracking > mkwACT SHN; transfer by Joshua Braveman 
  Archive
Source Information - Download Text | Download Zip
Grateful Dead
May 29, 1980
Des Moines Civic Center
Des Moines, Iowa

source: taper unknown
Nak 300 > Nak 550 > DAT
FOB right center of stage
Transfer: DATs (48) > Sony 60ES > M-Audio Audiophile USB > CDWAV > Golwave minor edits and resampling  > CDWAV tracking > mkwACT SHN

Disc 1/Set I
1.  Far From Me
2.  Let It Grow >
3.  Deal

Set II
4.  (x) Stranger >
5.  Ship of Fools >
6.  (x) Estimated Prophet >
7.  Eyes of the World >
8.  drums/>

Disc 2/Set II (cont)
1. space>
2. Lost Sailor > Saint of Circumstance >
3. Comes a Time >
4. Around & Around >
5. Johnny B. Goode
6. Encore: US Blues(x)

Notes: 1st set incomplete.
d1t04  most of Stranger missing
d1t06  1st few notes of Estimate missing
d1t08  tape flip after drums
d2t07  last few notes of US Blues cut

Overall very good sounding recording.  Despite being incomplete is a definite upgrade over the currently available source.

transfer: [email protected] September 2004

0b0e780b2d36ad1c35f81e4f92b3da76 *gd80-05-29d1t01.shn
03ac732b179225bdc2dba5f12c2ac65b *gd80-05-29d1t02.shn
d6ddf26917e4c2313144e83c08694992 *gd80-05-29d1t03.shn
60159f6d91e99eaec72f9fbc9b5606a1 *gd80-05-29d1t04.shn
2bf99078c91f738a1c562fb39d0a7734 *gd80-05-29d1t05.shn
7e62148b9a737bd8a984d6572dc057db *gd80-05-29d1t06.shn
33dac65f2f833162d688adeb11320feb *gd80-05-29d1t07.shn
c00f03aedfe7ccd567378797ffe237d0 *gd80-05-29d1t08.shn
93b1ef4ca38c3a5e92fb02f4968ebe4c *gd80-05-29d2t01.shn
0227456d7e9eada2ce06f7890495ec03 *gd80-05-29d2t02.shn
f1519db424f7ab67b1489d638e68baf1 *gd80-05-29d2t03.shn
a7a0cec7f3cc787bb18b8b0b6dab16e5 *gd80-05-29d2t04.shn
fc1747acc858cd4a7f7be5a6bbfe5f66 *gd80-05-29d2t05.shn
a9090087c01f6d2e0d3e94bc6f6b1bbf *gd80-05-29d2t06.shn

    length     expanded size   cdr  WAVE problems filename
     4:23.20       46440284    ---   --   ---xx   gd80-05-29d1t01.shn
    10:01.16      106054076    ---   --   ---xx   gd80-05-29d1t02.shn
     4:29.43       47552780    ---   --   ---xx   gd80-05-29d1t03.shn
     2:08.08       22598060    ---   --   ---xx   gd80-05-29d1t04.shn
     8:47.24       93019292    ---   --   ---xx   gd80-05-29d1t05.shn
    11:51.29      125488652    ---   --   ---xx   gd80-05-29d1t06.shn
    14:14.06      150659756    ---   --   ---xx   gd80-05-29d1t07.shn
    10:02.59      106331612    ---   --   ---xx   gd80-05-29d1t08.shn
     2:12.39       23376572    ---   --   ---xx   gd80-05-29d2t01.shn
    11:33.39      122336972    ---   --   ---xx   gd80-05-29d2t02.shn
     9:21.72       99129788    ---   --   ---xx   gd80-05-29d2t03.shn
     3:52.63       41073020    ---   --   ---xx   gd80-05-29d2t04.shn
     4:18.06       45525356    ---   --   ---xx   gd80-05-29d2t05.shn
     4:47.53       50751852    -b-   --   ---xx   gd80-05-29d2t06.shn
   102:04.27     1080338072 B                     (totals for 14 files, 0.5662 overall compression ratio)
Show Checksums
shn-md5
0b0e780b2d36ad1c35f81e4f92b3da76 *gd80-05-29d1t01.shn
03ac732b179225bdc2dba5f12c2ac65b *gd80-05-29d1t02.shn
d6ddf26917e4c2313144e83c08694992 *gd80-05-29d1t03.shn
60159f6d91e99eaec72f9fbc9b5606a1 *gd80-05-29d1t04.shn
2bf99078c91f738a1c562fb39d0a7734 *gd80-05-29d1t05.shn
7e62148b9a737bd8a984d6572dc057db *gd80-05-29d1t06.shn
33dac65f2f833162d688adeb11320feb *gd80-05-29d1t07.shn
c00f03aedfe7ccd567378797ffe237d0 *gd80-05-29d1t08.shn
93b1ef4ca38c3a5e92fb02f4968ebe4c *gd80-05-29d2t01.shn
0227456d7e9eada2ce06f7890495ec03 *gd80-05-29d2t02.shn
f1519db424f7ab67b1489d638e68baf1 *gd80-05-29d2t03.shn
a7a0cec7f3cc787bb18b8b0b6dab16e5 *gd80-05-29d2t04.shn
fc1747acc858cd4a7f7be5a6bbfe5f66 *gd80-05-29d2t05.shn
a9090087c01f6d2e0d3e94bc6f6b1bbf *gd80-05-29d2t06.shn
st5
d5b639731dd85451279c0a4ec4eb096b [shntool] gd80-05-29d1t01.shn
bc0ad9d033fcce0f1246d55c90d916d6 [shntool] gd80-05-29d1t02.shn
dc3ae7b39af29531990d1a874a6d7956 [shntool] gd80-05-29d1t03.shn
6e8eadc685815d185ff6f96302210b67 [shntool] gd80-05-29d1t04.shn
d9973e955690fbaa0af8f45dc06576de [shntool] gd80-05-29d1t05.shn
e9d104f94643b57ccb1ee19a33ecadff [shntool] gd80-05-29d1t06.shn
4644c53e380be16639d0de9f30d760b0 [shntool] gd80-05-29d1t07.shn
f02840c78ea660edee2846df9cc35f2f [shntool] gd80-05-29d1t08.shn
2b36e7d1f673d7703c13af529805512a [shntool] gd80-05-29d2t01.shn
f138a511539b26c2c6b3811426d416f5 [shntool] gd80-05-29d2t02.shn
250d9ffc9ac0dbd7d30bc12d0318f70c [shntool] gd80-05-29d2t03.shn
55c62a091aba174d58a6d61fdacbe1c6 [shntool] gd80-05-29d2t04.shn
12de6bc53803b057a1e33ab1d665d6a1 [shntool] gd80-05-29d2t05.shn
15165299900c82246d2cd641fd764a46 [shntool] gd80-05-29d2t06.shn

Comments
Add Comment
Other Sources (comments)
Source: A:C:C:D > CDR via... (0)
Date User Comment
10/06/2004 Gary The correct tracking for Disc 2
1. space>
2. Lost Sailor >
Saint of Circumstance >
3. Comes a Time >
4. Around & Around >
5. Johnny B. Goode
6. Encore: US Blues(x)
10/06/2004 Diana Thanks Gary! Fixed here.