Browse Collections Artists Sources   Search Dates

Add Show    List Management    Help


Phish 05/12/92
St. Lawrence University, Canton, NY
Comments Add Comment    Source Collectors    Add to Collection    Add to Want List    History
Source # 26286 Other Sources
Entered by Ben Mohr
Checksums all_flac_md5 , all_ffp
Disc Counts 2 / 2
Media Size
Date Circulated
Date Added
10/08/04
10/15/2004
Source Summary AUD > Cass/x; Dennon DRW-840 > Sony PCM-R500 @44.1kHz > Audiophile 2496 > CDWav > FLAC 
Source Information - Download Text | Download Zip
Phish /12/92
St. Lawrence University, Canton, NY

Source: Aud(unknown mics)> Cass/x (recorded 12/93)

Transfer: Dennon DRW-840> Sony PCM-r500 at 44.1> Audiophile 2496> WAV> CD Wave Editor to track> FLAC on 10/7/04 by EEE

DISC 1 / Set 1: 70:59
My Sweet One+
Reba
All Things Reconsidered
The Sloth
Possum
It's Ice
Dinner and a Movie\
[missing] - Bouncing Around the Room
Buried Alive
Uncle Pen
Horn
David Bowie

DISC 2 - Set 2: 75:59
The Landlady
Bathtub Gin
You Enjoy Myself*
Guelah Papyrus^
Chalk Dust Torture\
Cold as Ice-> Terrapin-> HYHU
Poor Heart
Llama
Cavern

Encore:
Runaway Jim

+Language, "aw fuck" and "ha, ha, ha" signals
*Oye Como Va Jam
^dropout/cut off some kind at 23 seconds, not removed

There are a couple PA drop outs during this show; during Possum and It's Ice were two I noticed. This is a outside show, listen for the dog (Marley?) barking at the beginning of Possum. I also have no idea why Bouncing would be missing from set I, but Dinner is cut and BA starts abruptly, so it?s possible.

Shntool output:

    length     expanded size   cdr  WAVE problems filename
     3:52.69       41087132    ---   --   -----   ph1992-05-12d1t01.wav
    12:35.40      133276124    ---   --   -----   ph1992-05-12d1t02.wav
     3:04.67       32615228    ---   --   -----   ph1992-05-12d1t03.wav
     3:40.46       38916236    ---   --   -----   ph1992-05-12d1t04.wav
    11:44.68      124345580    ---   --   -----   ph1992-05-12d1t05.wav
    10:20.73      109539740    ---   --   -----   ph1992-05-12d1t06.wav
     2:07.37       22489868    ---   --   -----   ph1992-05-12d1t07.wav
     2:00.24       21224492    ---   --   -----   ph1992-05-12d1t08.wav
     4:13.25       44688044    ---   --   -----   ph1992-05-12d1t09.wav
     4:06.35       43476764    ---   --   -----   ph1992-05-12d1t10.wav
    13:10.38      139445420    ---   --   -----   ph1992-05-12d1t11.wav
     5:31.71       58555436    ---   --   -----   ph1992-05-12d2t01.wav
     7:53.15       83472524    ---   --   -----   ph1992-05-12d2t02.wav
    21:52.17      231476828    ---   --   -----   ph1992-05-12d2t03.wav
     5:48.58       61523660    ---   --   -----   ph1992-05-12d2t04.wav
     5:53.40       62363324    ---   --   -----   ph1992-05-12d2t05.wav
     8:11.49       86727692    ---   --   -----   ph1992-05-12d2t06.wav
     2:39.57       28181708    ---   --   -----   ph1992-05-12d2t07.wav
     4:27.02       47103548    ---   --   -----   ph1992-05-12d2t08.wav
     4:53.38       51774620    ---   --   -----   ph1992-05-12d2t09.wav
     1:19.46       14043836    ---   --   -----   ph1992-05-12d2t10.wav
     7:26.34       78754412    ---   --   -----   ph1992-05-12d2t11.wav
   146:55.49     1555082216 B                     (totals for 22 files, 1.0000 o
verall compression ratio)

Show Checksums
all_flac_md5
1fd5c66507a4ebd42cd6ab9660657688 *ph1992-05-12d1t01.flac
563b30a3ca48ead3384a9015cad634e3 *ph1992-05-12d1t02.flac
4ccde400d97242683c020a5a20f6c0c7 *ph1992-05-12d1t03.flac
3c223983fbc35e2d4634a736a5ec1a79 *ph1992-05-12d1t04.flac
6d2d02bbed36b08090a24f68c2a2fd0e *ph1992-05-12d1t05.flac
2a64192652453dd0f8be977a6e8b92ad *ph1992-05-12d1t06.flac
d54ed8d97e7ab20ba0b6b9d2ca5611d4 *ph1992-05-12d1t07.flac
936547f157d323cac1f8fa745b7b1cd4 *ph1992-05-12d1t08.flac
4fb860d62520c108bd9aabeff37c00bc *ph1992-05-12d1t09.flac
86a9923fa5d2fef02bb698a8c36acf97 *ph1992-05-12d1t10.flac
6193343825dc5e48e91c30b5d717ad12 *ph1992-05-12d1t11.flac
e906e90bb24600b0b19023cd5a97d88d *ph1992-05-12d2t01.flac
de52f85f3ec02a8c27d4ca26f5c7ddf8 *ph1992-05-12d2t02.flac
a23143beda6be3cc4b6106f40c9a7936 *ph1992-05-12d2t03.flac
2655c6c6405ccb52031728107a054b31 *ph1992-05-12d2t04.flac
74fb51101d95057c183e223c7a3e0745 *ph1992-05-12d2t05.flac
8864b79e3f5562c6947e82ea65904308 *ph1992-05-12d2t06.flac
09751f0aeb5b0177f1873bbd87a5fe88 *ph1992-05-12d2t07.flac
3b027df62308e6208e6321133cb83104 *ph1992-05-12d2t08.flac
19086d686fd305af3b4abeefc58be58c *ph1992-05-12d2t09.flac
fed0cfcb8b4b7304aa0a43d15d5c77fc *ph1992-05-12d2t10.flac
b3b78a835a01174a1a9936e034457a6c *ph1992-05-12d2t11.flac
all_ffp
ph1992-05-12d2t11.flac:5467d122973644612abeee13007a3500
ph1992-05-12d1t01.flac:46c77db5e4b11ef03c468ec952d7d3ed
ph1992-05-12d1t02.flac:ce66a913e46a100825b65931c036a71e
ph1992-05-12d1t03.flac:e167d121f975a6f47ac0b16b0693a1b5
ph1992-05-12d1t04.flac:c3994568b008965d450c2d2dd37fd498
ph1992-05-12d1t05.flac:dcc604e585b56c2a2e35aadc4a9a8e30
ph1992-05-12d1t06.flac:99b52bbf7b94ff11c19ed30050d33cb5
ph1992-05-12d1t07.flac:51bc732107c7f71d081ec0ac3e9286ea
ph1992-05-12d1t08.flac:7b0c0734b550374f185b2909d8041466
ph1992-05-12d1t09.flac:0535b9de3b4c24fa9ff288a9d1156cd1
ph1992-05-12d1t10.flac:d7bed567835b604dbf15f1dc37387166
ph1992-05-12d1t11.flac:d65923a31422785a5dcc7fee81a32979
ph1992-05-12d2t01.flac:fa9720d56f76956388aa146551addd2a
ph1992-05-12d2t02.flac:2f9a6508b9bc0c6d292fb346685eea48
ph1992-05-12d2t03.flac:23e8afa5a46426fce202f03141304015
ph1992-05-12d2t04.flac:7de6a13474ddde6e2d61ca495603989c
ph1992-05-12d2t05.flac:0567c5b3e4063c9ff3e147fefd44ab2a
ph1992-05-12d2t06.flac:efb5e0e76a63a71b1c845d81c296b53d
ph1992-05-12d2t07.flac:b151151455edb86e714bd88ed07cef98
ph1992-05-12d2t08.flac:6884a2647965a88f9138c93e9aa747d6
ph1992-05-12d2t09.flac:113973255d6ead2431516d555ca90e3d
ph1992-05-12d2t10.flac:3048ff8274d6b9103ba4f97f6b3484a2


Comments
Add Comment
Other Sources (comments)
SBD > DAT > Cass/x >... (0) Set 2 only; SBD > Cass/1 >... (0) flac16 48kHz Set 2... (0)
Date User Comment
04/04/2005 pgross Set 2 seems to be a sbd.