Browse Collections Artists Sources   Search Dates

Add Show    List Management    Help


Drive-By Truckers 07/29/04
Visulite Theatre, Charlotte, NC
Comments Add Comment    Source Collectors    Add to Collection    Add to Want List    History
Source # 26396 Other Sources
Entered by Kyle pike
Checksums ffp
Disc Counts 2 / 3
Media Size
Date Circulated
Date Added
08/01/04
12/19/2004
Source Summary SBD + AKG c2000 > MP2 > DA-P1 (Roy Shuler) 
Source Information - Download Text | Download Zip
Drive By Truckers
7-29-04
Visulite Theater
Charlotte,NC

source: SBD + AKG c2000 > MP2 > DA P-1
transfer: Sony R300 > Behringer SP8024 Dig. Eq.> BBE 362 Sonic Maximizer> RNC 1773 Compressor> ART DI/O Dig. Converter> Tascam CDRW4U > EAC > Flac Frontend (level 8)

Taped, Transfer and Mastering by Taper Roy

EAC > Flac by [email protected]

disc one:

1. Where The Devil Don't Stay
2. Sinkhole
3. Decoration Day
4. (Something?s Got to) Give Pretty Soon
5. Careless
6. Sounds Better In The Song
7. Daddy's Cup
8. Lookout Mountain
9. Goddamn Lonely Love
10. The Day John Henry Died
11. Sweet Annette
12. Demonic Possession

disc two:

1. Marry Me
2. Carl Perkins Cadillac
3. Dead Drunk and Naked
4. Guitar Man Upstairs
5. Never Gonna Change
6. The Boys From Alabama
7. Cotton Seed
8. Outfit
9. Women Without Whiskey
10. Let There Be Rock
11. Crowd

Disc three:

Encore:
1. Wrong For All These Years
2. Zip City
3. Play It All Night Long
4. Plastic Flowers On The Highway
5. Buttholeville
6. Sandwiches For The Road
7. Putting People On the Moon

notes:
- big thanks to Roy for getting me the disc to seed! I tried to get the DAT but he tapes over after transferring.
- yes my EAC offset is 0! I know what I'm doing (I've set up many drives) and it came up 0 every time I tested it.
I also looked into it online and came to the same conclusion.
I was told the drive is the same as a lite on and to try the offsets for it, didn't work. so 0 it is.
- sector boundary's confirmed with shntool v2.0.3

flac fingerprint:
dbt2004-07-29d1t01.flac:97dd3663317fbd7c9ba0060f170c5d97
dbt2004-07-29d1t02.flac:ebde4ad14830671e77fb8a401026ad93
dbt2004-07-29d1t03.flac:764ba57f924b5b28d69ca1487867bbe7
dbt2004-07-29d1t04.flac:1f92373e5fab1ff6415891fed74fd570
dbt2004-07-29d1t05.flac:af14afd620e15832e03487d8a2e380d2
dbt2004-07-29d1t06.flac:ce4fec15332542a1d46b5077816034d4
dbt2004-07-29d1t07.flac:f00c467bd672a185346c7a36296a1039
dbt2004-07-29d1t08.flac:2c25baadcca16d024e3aa7cea45ea5a8
dbt2004-07-29d1t09.flac:efb9b76c7cf2d8a6d5dc4411b86d5214
dbt2004-07-29d1t10.flac:39e5f995274c49893de581a01ee708d0
dbt2004-07-29d1t11.flac:3182a350cf4394248a99539b81d99a05
dbt2004-07-29d1t12.flac:f615846db44c95072167b818884edf5e
dbt2004-07-29d2t01.flac:b22564a69e860bb702105fc4870be9bc
dbt2004-07-29d2t02.flac:be9a265ed1a88a0c30c16a627624f276
dbt2004-07-29d2t03.flac:f62b88a950a13f71108fe6e906581583
dbt2004-07-29d2t04.flac:86b82674c606361781be5b96c142b640
dbt2004-07-29d2t05.flac:acd559e467d8a2dc3a75c5788cfcec25
dbt2004-07-29d2t06.flac:cae55b29b5e41a25f39f06aa5d2a1a87
dbt2004-07-29d2t07.flac:0e187829a51f4aab5756aaba9b7361c0
dbt2004-07-29d2t08.flac:50571da53e3b0a84437ce3fd29bd94be
dbt2004-07-29d2t09.flac:97a58a1dd7c7ee8f233ca8075cfcc4e6
dbt2004-07-29d2t10.flac:7903ee29fe18fc50347d7a5c0d568f6f
dbt2004-07-29d2t11.flac:eca568bfc8eabd0cac8457fdb3ab4c4c
dbt2004-07-29d3t01.flac:9c611cb6fc37c01a2a75943c9c678dae
dbt2004-07-29d3t02.flac:74de2697f0c483a98c78be519a2a4c26
dbt2004-07-29d3t03.flac:e61c964c369198dac9931446957d002b
dbt2004-07-29d3t04.flac:b7c5be8f74c4ba1c4ecdf82070cce8cf
dbt2004-07-29d3t05.flac:7640a80475baf4ae9309b0e4cff3fca9
dbt2004-07-29d3t06.flac:ced0f6198db0a3fc4507e3692204e651
dbt2004-07-29d3t07.flac:9d6595effde77530621479625be9fa7b


shntool output:
length expanded size cdr WAVE problems filename
5:33.40 58835324 --- -- ---xx dbt2004-07-29d1t01.flac
3:36.10 38125964 --- -- ---xx dbt2004-07-29d1t02.flac
6:40.15 70595324 --- -- ---xx dbt2004-07-29d1t03.flac
4:09.30 43994204 --- -- ---xx dbt2004-07-29d1t04.flac
2:13.30 23531804 --- -- ---xx dbt2004-07-29d1t05.flac
3:56.35 41712764 --- -- ---xx dbt2004-07-29d1t06.flac
5:50.35 61822364 --- -- ---xx dbt2004-07-29d1t07.flac
5:20.10 56471564 --- -- ---xx dbt2004-07-29d1t08.flac
5:35.25 59152844 --- -- ---xx dbt2004-07-29d1t09.flac
4:01.00 42512444 --- -- ---xx dbt2004-07-29d1t10.flac
4:33.70 48321884 --- -- ---xx dbt2004-07-29d1t11.flac
7:05.72 75139388 --- -- ---xx dbt2004-07-29d1t12.flac
6:05.30 64456604 --- -- ---xx dbt2004-07-29d2t01.flac
5:45.40 60952124 --- -- ---xx dbt2004-07-29d2t02.flac
5:59.35 63409964 --- -- ---xx dbt2004-07-29d2t03.flac
3:56.05 41642204 --- -- ---xx dbt2004-07-29d2t04.flac
5:47.35 61293164 --- -- ---xx dbt2004-07-29d2t05.flac
8:00.35 84754364 --- -- ---xx dbt2004-07-29d2t06.flac
7:47.30 82449404 --- -- ---xx dbt2004-07-29d2t07.flac
5:00.20 52967084 --- -- ---xx dbt2004-07-29d2t08.flac
4:50.45 51261884 --- -- ---xx dbt2004-07-29d2t09.flac
6:47.35 71877164 --- -- ---xx dbt2004-07-29d2t10.flac
0:15.42 2744828 --- -- ---xx dbt2004-07-29d2t11.flac
5:00.35 53002364 --- -- ---xx dbt2004-07-29d3t01.flac
6:36.70 70019084 --- -- ---xx dbt2004-07-29d3t02.flac
5:50.35 61822364 --- -- ---xx dbt2004-07-29d3t03.flac
6:07.00 64738844 --- -- ---xx dbt2004-07-29d3t04.flac
9:12.50 97490444 --- -- ---xx dbt2004-07-29d3t05.flac
8:04.45 85483484 --- -- ---xx dbt2004-07-29d3t06.flac
6:12.02 65625548 --- -- ---xx dbt2004-07-29d3t07.flac
165:55.61 1674.85 MB (totals for 30 files, 0.6454 overall compression ratio)
Show Checksums
ffp
dbt2004-07-29d1t01.flac:97dd3663317fbd7c9ba0060f170c5d97
dbt2004-07-29d1t02.flac:ebde4ad14830671e77fb8a401026ad93
dbt2004-07-29d1t03.flac:764ba57f924b5b28d69ca1487867bbe7
dbt2004-07-29d1t04.flac:1f92373e5fab1ff6415891fed74fd570
dbt2004-07-29d1t05.flac:af14afd620e15832e03487d8a2e380d2
dbt2004-07-29d1t06.flac:ce4fec15332542a1d46b5077816034d4
dbt2004-07-29d1t07.flac:f00c467bd672a185346c7a36296a1039
dbt2004-07-29d1t08.flac:2c25baadcca16d024e3aa7cea45ea5a8
dbt2004-07-29d1t09.flac:efb9b76c7cf2d8a6d5dc4411b86d5214
dbt2004-07-29d1t10.flac:39e5f995274c49893de581a01ee708d0
dbt2004-07-29d1t11.flac:3182a350cf4394248a99539b81d99a05
dbt2004-07-29d1t12.flac:f615846db44c95072167b818884edf5e
dbt2004-07-29d2t01.flac:b22564a69e860bb702105fc4870be9bc
dbt2004-07-29d2t02.flac:be9a265ed1a88a0c30c16a627624f276
dbt2004-07-29d2t03.flac:f62b88a950a13f71108fe6e906581583
dbt2004-07-29d2t04.flac:86b82674c606361781be5b96c142b640
dbt2004-07-29d2t05.flac:acd559e467d8a2dc3a75c5788cfcec25
dbt2004-07-29d2t06.flac:cae55b29b5e41a25f39f06aa5d2a1a87
dbt2004-07-29d2t07.flac:0e187829a51f4aab5756aaba9b7361c0
dbt2004-07-29d2t08.flac:50571da53e3b0a84437ce3fd29bd94be
dbt2004-07-29d2t09.flac:97a58a1dd7c7ee8f233ca8075cfcc4e6
dbt2004-07-29d2t10.flac:7903ee29fe18fc50347d7a5c0d568f6f
dbt2004-07-29d2t11.flac:eca568bfc8eabd0cac8457fdb3ab4c4c
dbt2004-07-29d3t01.flac:9c611cb6fc37c01a2a75943c9c678dae
dbt2004-07-29d3t02.flac:74de2697f0c483a98c78be519a2a4c26
dbt2004-07-29d3t03.flac:e61c964c369198dac9931446957d002b
dbt2004-07-29d3t04.flac:b7c5be8f74c4ba1c4ecdf82070cce8cf
dbt2004-07-29d3t05.flac:7640a80475baf4ae9309b0e4cff3fca9
dbt2004-07-29d3t06.flac:ced0f6198db0a3fc4507e3692204e651
dbt2004-07-29d3t07.flac:9d6595effde77530621479625be9fa7b

Comments
Add Comment
Date User Comment