Browse Collections Artists Sources   Search Dates

Add Show    List Management    Help


Phish 04/20/89
The Zoo, Amherst, MA
Comments Add Comment    Source Collectors    Add to Collection    Add to Want List    History
Source # 26755 Other Sources
Entered by Matt Vernon
Checksums all_flac_md5 , ffp
Disc Counts 1 / 2
Media Size
Date Circulated
Date Added
11/11/04
12/30/2004
Source Summary Set 2 only; SBD > Cass/X; Dennon DRW-840 > Sony PCM-R500 @44.1kHz > Audiophile 2496 > Samplitude 5.5 > CDWav > FLAC 
Source Information - Download Text | Download Zip
Phish 4/20/89
Humpries House (The Zoo)
Amherst College - Amherst, MA

Source: SBD>Cass/X (recorded 11/95)

Transfer: Dennon DRW-840> Sony PCM-r500 at 44.1> Audiophile 2496> Samplitude 5.5> CD Wave Editor to track> FLAC on 11/9/04 by EEE

Disc 1 - Set II - 74min
t01 - /The Divided Sky
t02 - Walk Away
t03 - You Enjoy Myself->
t04 - Split Open and Melt^
t05 - /Lizards
t06 - Mike's Song->
t07 - I Am Hydrogen->
t08 - Weekapaug Groove
t09 - Love You
Disc 2 - Set II Cont - 16min
t01 - Harpua\
-Several level fluxuations (sky, walk away)
-several quick cuts in pre-Harpua banter that I left alone
-^With jazzy drum solo by Fish

SHNTOOL output:

    length     expanded size   cdr  WAVE problems filename
    12:26.64      131744972    ---   --   -----   ph1989-04-20s2d1t01.wav
     5:22.02       56805548    ---   --   -----   ph1989-04-20s2d1t02.wav
    15:05.25      159700844    ---   --   -----   ph1989-04-20s2d1t03.wav
     9:26.33       99920060    ---   --   -----   ph1989-04-20s2d1t04.wav
    10:51.46      114944636    ---   --   -----   ph1989-04-20s2d1t05.wav
     6:42.57       71046908    ---   --   -----   ph1989-04-20s2d1t06.wav
     2:25.31       25650956    ---   --   -----   ph1989-04-20s2d1t07.wav
     5:46.11       61060316    ---   --   -----   ph1989-04-20s2d1t08.wav
     5:45.39       60949772    ---   --   -----   ph1989-04-20s2d1t09.wav
    15:13.10      161076764    ---   --   -----   ph1989-04-20s2d2t01.wav
    89:05.18      942900776 B                     (totals for 10 files, 1.0000 o
verall compression ratio)



Show Checksums
all_flac_md5
1ccc6540787feeff861a53dc214c3cac *ph1989-04-20s2d1t01.flac
fab85773a264c17309e997f7d0822e7d *ph1989-04-20s2d1t02.flac
92c3a387fe2fb7d2b34423dfea97984d *ph1989-04-20s2d1t03.flac
38f9b378572c528484b13bf06829cf1f *ph1989-04-20s2d1t04.flac
be9dc75428c289ff31c2ae786aa64b98 *ph1989-04-20s2d1t05.flac
c3f984e4164c848c6e7ab2f741392bc9 *ph1989-04-20s2d1t06.flac
90b4a53ebb36a60809ef581b66b31dd5 *ph1989-04-20s2d1t07.flac
10b5b4062ef1d4a7ffe6beb241901d21 *ph1989-04-20s2d1t08.flac
0b03f7330a6874fda749087526a2f2cb *ph1989-04-20s2d1t09.flac
a3f9fdf898dbfebe5eca8123545c850f *ph1989-04-20s2d2t01.flac
ffp
ph1989-04-20s2d1t01.flac:2b42d7fe159b5dcf5a0c9b79389f7515
ph1989-04-20s2d1t02.flac:2737fab32b44633e924fd4e4bfd969ef
ph1989-04-20s2d1t03.flac:45bcde1a33fe9374045f7622dba79ec0
ph1989-04-20s2d1t04.flac:d92bff95364334eb8c1958641f3e409e
ph1989-04-20s2d1t05.flac:87304f75787efbf96ca03d1cea24b274
ph1989-04-20s2d1t06.flac:c3e1ac3365edfca92dc9139b09a9193a
ph1989-04-20s2d1t07.flac:820f3a57f747d7b20d7c4238e6e9bff6
ph1989-04-20s2d1t08.flac:526cf6219513ebc5773893e8abd13321
ph1989-04-20s2d1t09.flac:bd73db3dbff81fe3a4663ea2d30e1a56
ph1989-04-20s2d2t01.flac:b0a219845683aadf5aa0769eb7da40b1

Comments
Add Comment
Other Sources (comments)
Complete show; SBD > Cass/x... (0)
Date User Comment