Browse Collections Artists Sources   Search Dates

Add Show    List Management    Help


Phish 11/16/89
Pearl Street Night Club Ballroom, Northampton, MA
Comments Add Comment    Source Collectors    Add to Collection    Add to Want List    History
Source # 26853 Other Sources
Entered by Ben Mohr
Checksums all_flac_md5 , all_ffp
Disc Counts 1 / 2
Media Size
Date Circulated
Date Added
11/16/04
11/22/2004
Source Summary SBD > Cass/x; Dennon DRW-840 > Sony PCM-R500 @44.1kHz > Audiophile 2496 > Samplitude 5.5 > CDWav > FLAC 
Source Information - Download Text | Download Zip
Phish 11/16/89
Pearl Street - Northampton, MA

Source: SBD>CassX (recorded 11/95)

Transfer: Dennon DRW-840> Sony PCM-r500 at 44.1> Audiophile 2496> Samplitude 5.5> CD Wave Editor> FLAC on 11/16/04 by EEE

Disc 1 - Set I: 71min
t01 - Mike's\Song->*
t02 - I Am Hydrogen->
t03 - Weekapaug Groove
t04 - Bathtub Gin
t05 - Foam
t06 - Oh Kee Pa->
t07 - Suzie Greenberg
t08 - My Sweet One
t09 - Banter
t10 - Reba
t11 - You Enjoy Myself
t12 - Frankenstien

Disc 2 - Set II: 30min
t01 - Sloth->
t02 - AC DC Bag
t03 - Tela
t04 - David Bowie\#
*recording starts with a wave from 10-12 seconds, lots of bass, then has a cut at 3:10. Mike's continues close to the conclusion with a good minute or two missing probably, but the recording has improved dramatically.
#The show ended after Bowie b/c a window broke at the club (so says my pharmer's almanac).

SHNTOOL Output:

    length     expanded size   cdr  WAVE problems filename
     4:07.52       43693148    ---   --   -----   ph1989-11-16d1t01.wav
     2:20.38       24785420    ---   --   -----   ph1989-11-16d1t02.wav
     6:10.62       65413868    ---   --   -----   ph1989-11-16d1t03.wav
     6:17.27       66566348    ---   --   -----   ph1989-11-16d1t04.wav
     8:05.66       85709276    ---   --   -----   ph1989-11-16d1t05.wav
     1:48.43       19152380    ---   --   -----   ph1989-11-16d1t06.wav
     5:09.32       54582908    ---   --   -----   ph1989-11-16d1t07.wav
     2:17.12       24195068    ---   --   -----   ph1989-11-16d1t08.wav
     0:51.26        9057596    ---   --   -----   ph1989-11-16d1t09.wav
    10:44.01      113603996    ---   --   -----   ph1989-11-16d1t10.wav
    17:55.73      189801740    ---   --   -----   ph1989-11-16d1t11.wav
     4:43.12       49949468    ---   --   -----   ph1989-11-16d1t12.wav
     3:43.52       39459548    ---   --   -----   ph1989-11-16d2t01.wav
     6:58.17       73775228    ---   --   -----   ph1989-11-16d2t02.wav
     6:53.61       72996716    ---   --   -----   ph1989-11-16d2t03.wav
    12:27.29      131839052    ---   --   -----   ph1989-11-16d2t04.wav
   100:35.03     1064581760 B                     (totals for 16 files, 1.0000 o
verall compression ratio)
Show Checksums
all_flac_md5
d9ba10f10f8d640bddf920f8ab218931 *ph1989-11-16d1t01.flac
d8b6553829c640f4352a3c7453be1cd3 *ph1989-11-16d1t02.flac
706e9d51c4c82057aa09e5fe68a64add *ph1989-11-16d1t03.flac
6d4dd1a7dd46cdeef3e900c9825876a9 *ph1989-11-16d1t04.flac
8ec7f8113399d8d8f2237cfb9f122aef *ph1989-11-16d1t05.flac
f2027833d88ae0226487e098adb6b571 *ph1989-11-16d1t06.flac
3079728f11606951590f312ff467aee2 *ph1989-11-16d1t07.flac
db7c0c954964502b3054186706d65a2e *ph1989-11-16d1t08.flac
98d955ef1abb4973c7978a6f7a997b72 *ph1989-11-16d1t09.flac
e28d5d27063ca82c1151e239a73a7db1 *ph1989-11-16d1t10.flac
c5e5629f263b63cafd4133a2a2877d89 *ph1989-11-16d1t11.flac
1548bfc7a6ebf45cc939724bcf064ae6 *ph1989-11-16d1t12.flac
d079884a8a2b0c381f1ea4cf586e1af1 *ph1989-11-16d2t01.flac
d06e4a23047a2047f6b3018c2fee7636 *ph1989-11-16d2t02.flac
21a2de881ed9cf80b0b31a30fa69779f *ph1989-11-16d2t03.flac
27be42c7bfe5e8289151cd05ef5631fb *ph1989-11-16d2t04.flac
all_ffp
ph1989-11-16d2t04.flac:ede5c2f043373d5b20c6782242ea762e
ph1989-11-16d1t01.flac:c44ad79c2ad7ba9932419bef736da617
ph1989-11-16d1t02.flac:68ba5362c971e966ff10a0e616f866f8
ph1989-11-16d1t03.flac:8133f988396bfc809515a97c631e8928
ph1989-11-16d1t04.flac:eb8fc7264e551fc3c1fc58d1bef2052d
ph1989-11-16d1t05.flac:8c24da0d7cc9cb703ab901c67d0b1961
ph1989-11-16d1t06.flac:77a135c44c94074cc7a66790cc720e62
ph1989-11-16d1t07.flac:e61ef99d7c3ae38e39442440e5e1ff6d
ph1989-11-16d1t08.flac:6c23fbf1d7e6bb0eb1339d70e4d7f7ae
ph1989-11-16d1t09.flac:e775e43437c5187fe159d8c149001a8f
ph1989-11-16d1t10.flac:cfefe453c2eea88cb84c6f0c3e0745c5
ph1989-11-16d1t11.flac:0c548b8330485d29d52e68a80d1c8d20
ph1989-11-16d1t12.flac:1ec7661b57c0cb7eb738a38745a5996f
ph1989-11-16d2t01.flac:172114b10f34de28bc1386991711d315
ph1989-11-16d2t02.flac:27797c38c1f372c1046d1aa46ad30cbd
ph1989-11-16d2t03.flac:b8ce6beff260e1ec2651434e5b4286ca


Comments
Add Comment
Date User Comment