Browse Collections Artists Sources   Search Dates

Add Show    List Management    Help


Dirty Dozen Brass Band 10/07/04
The Orange Peel, Asheville, NC
Comments Add Comment    Source Collectors    Add to Collection    Add to Want List    History
Source # 26930 Other Sources
Entered by Brian C
Checksums FFP
Disc Counts 1 / 1
Media Size
Date Circulated
Date Added
11/22/04
11/24/2004
Source Summary source: (DFC,DINa) AKG 483 > v3 > dap1 transfer: dap1 > audiophile 24/96 > wavelab 4.0 > cd wave > flac frontend (level 8) - fades added at beginning and end of disc with wavelab 4.0 - sector boundary's confirmed with shntool v2.0.3 
  Archive
Source Information - Download Text | Download Zip
Dirty Dozen Brass Band
10-7-04
The Orange Peel
Asheville,NC

source: (DFC,DINa)  AKG 483 > v3 > dap1
transfer:  dap1 > audiophile 24/96 > wavelab 4.0 > cd wave > flac frontend (level 8)

taped and transfered by gordon wilson
[email protected] dot com

one disc:
1. Intro
2. Love The One You're With jam
3. Do It ?
4. ?
5. Ball Of Confusion >
6. Walk On Gilded Splinters
7. Junco Partner
8. ? >
9. Drums>
10. ?
11. I'll Fly Away*

notes:
- opened for North Mississippi Allstars
- *w/ Rising Star and Luther Dickinson
- fades added at beginning and end of disc with wavelab 4.0
- sector boundary's confirmed with shntool v2.0.3

flac fingerprint:
ddbb2004-10-07t01.flac:3f9512758efe0479e57413f3e744fc3b
ddbb2004-10-07t02.flac:6560b79c64565a206ac688a592c57547
ddbb2004-10-07t03.flac:c17c425d04954a6f04779382ece97c3a
ddbb2004-10-07t04.flac:c8ebaa4a34d3f425087420b720c7e354
ddbb2004-10-07t05.flac:1af3fd3ec1d493c5c368bf1d561d4716
ddbb2004-10-07t06.flac:7ff9abdf82a0912cd682bc33d32ce070
ddbb2004-10-07t07.flac:a1d12c1855b008b1c307e99d9ade26cf
ddbb2004-10-07t08.flac:157c1443a3bfe1a8b0f0430ce026eaa0
ddbb2004-10-07t09.flac:517ded04c8ea28b07c7a3c625ebb8a45
ddbb2004-10-07t10.flac:2a55307f17c985f79bb524a013a73202
ddbb2004-10-07t11.flac:59b062a8c03042730fb6904a3379adf3

shntool output:
    length     expanded size   cdr  WAVE problems filename
     0:50.51        8939996    ---   --   ---xx   ddbb2004-10-07t01.flac
     2:25.45       25683884    ---   --   ---xx   ddbb2004-10-07t02.flac
    15:23.27      162880748    ---   --   ---xx   ddbb2004-10-07t03.flac
     6:25.33       67991660    ---   --   ---xx   ddbb2004-10-07t04.flac
     5:07.17       54194828    ---   --   ---xx   ddbb2004-10-07t05.flac
     5:58.23       63205340    ---   --   ---xx   ddbb2004-10-07t06.flac
     7:08.23       75553340    ---   --   ---xx   ddbb2004-10-07t07.flac
     5:56.72       62967788    ---   --   ---xx   ddbb2004-10-07t08.flac
     1:43.32       18244508    ---   --   ---xx   ddbb2004-10-07t09.flac
     2:15.16       23851676    ---   --   ---xx   ddbb2004-10-07t10.flac
     9:37.36      101867516    ---   --   ---xx   ddbb2004-10-07t11.flac
    62:52.00         634.56 MB                    (totals for 11 files, 0.5803 overall compression ratio)


Show Checksums
FFP
ddbb2004-10-07t01.flac:3f9512758efe0479e57413f3e744fc3b
ddbb2004-10-07t02.flac:6560b79c64565a206ac688a592c57547
ddbb2004-10-07t03.flac:c17c425d04954a6f04779382ece97c3a
ddbb2004-10-07t04.flac:c8ebaa4a34d3f425087420b720c7e354
ddbb2004-10-07t05.flac:1af3fd3ec1d493c5c368bf1d561d4716
ddbb2004-10-07t06.flac:7ff9abdf82a0912cd682bc33d32ce070
ddbb2004-10-07t07.flac:a1d12c1855b008b1c307e99d9ade26cf
ddbb2004-10-07t08.flac:157c1443a3bfe1a8b0f0430ce026eaa0
ddbb2004-10-07t09.flac:517ded04c8ea28b07c7a3c625ebb8a45
ddbb2004-10-07t10.flac:2a55307f17c985f79bb524a013a73202
ddbb2004-10-07t11.flac:59b062a8c03042730fb6904a3379adf3

Comments
Add Comment
Date User Comment