Browse Collections Artists Sources   Search Dates

Add Show    List Management    Help


Grateful Dead 12/01/66
The Matrix, San Francisco, CA
Comments Add Comment    Source Collectors    Add to Collection    Add to Want List    History
Source # 26968 Other Sources
Entered by Matt Vernon
Checksums shn-md5 , st5
Disc Counts 1 / 2
Media Size
Date Circulated
Date Added
11/28/2004
12/03/2004
Source Summary remastered (NR, cleanup) version of previous shn set, by SIRMick; Noise reduction was done with Waves X-Noise plugin using WaveLab as the host 
  Archive
Source Information - Download Text | Download Zip
Grateful Dead
12/01/66
The Matrix
San Francisco, CA

Source:  SBD>Rm>Reel>Dat>CD>wav>shnv3 > wav > shn

disc 1
set 1

01   Minglewood Blues
02   Betty and Dupree
03   Next Time You See  Me
04   I Know You Rider
05   Big Boss Man
06   One Kind Favor
07   Alice D. Millionaire
08   Me and My Uncle (aborted attempt)
09   Me and My Uncle
10   Cream Puff War

set 2

11   You Don't Love Me
12   Beat It On Down The Line
13   It Hurts  Me Too
14   On The Road Again
15   //Yonder's Wall (1)

disc 2
set 2 (cont'd)

01 My Own Fault
02 Down So Long
03 Cold Rain And Snow
04 Viola Lee Blues

set 3

05 Deep Elem Blues
06 Something On Your Mind
07 Big Boy Pete
08 Death Don't Have No Mercy
09 Lindy
10 Dancin' In  The Street
11 Me and My Uncle (2)


Comments:

(1) With unidentified special guest
(2) Merry-Go-Round Broke Down tuning [0:27] after Me and My Uncle

A very good friend of mine was saying to me recently that he considered this to be one of the great early shows and I can't disagree with that.  The main thing that marred it for him was the high level of background noise.  He asked if I could remaster it with the main aim of reducing the noise to an acceptable level.  So I've done just that but along the way I've also cleared up some of the small dropouts and various clicks, etc.

Noise reduction was done with Waves X-Noise plugin using WaveLab as the host.

The source material is that in shnid 8575

The editing was done with a number of applications, re-tracked with CD Wave and shns made with shorten v3

This one's for RET!

seeded to Eurotraders November 2004

SIRMick ([email protected])

    length     expanded size   cdr  WAVE problems filename
     4:32.18       48023180    ---   --   ---xx   gd66-12-01d1t01.shn
     5:06.47       54088988    ---   --   ---xx   gd66-12-01d1t02.shn
     3:42.51       39280796    ---   --   ---xx   gd66-12-01d1t03.shn
     4:01.11       42538316    ---   --   ---xx   gd66-12-01d1t04.shn
     3:53.37       41188268    ---   --   ---xx   gd66-12-01d1t05.shn
     5:25.33       57407660    ---   --   ---xx   gd66-12-01d1t06.shn
     3:34.65       37902524    ---   --   ---xx   gd66-12-01d1t07.shn
     1:45.51       18641996    ---   --   ---xx   gd66-12-01d1t08.shn
     3:33.17       37613228    ---   --   ---xx   gd66-12-01d1t09.shn
     9:09.57       96977708    ---   --   ---xx   gd66-12-01d1t10.shn
     4:42.40       49838924    ---   --   ---xx   gd66-12-01d1t11.shn
     2:32.69       26975132    ---   --   ---xx   gd66-12-01d1t12.shn
     4:38.43       49140380    ---   --   ---xx   gd66-12-01d1t13.shn
     2:28.61       26250716    ---   --   ---xx   gd66-12-01d1t14.shn
     4:01.04       42520984    -b-   --   ---xx   gd66-12-01d1t15.shn
     7:03.36       74701916    ---   --   ---xx   gd66-12-01d2t01.shn
     3:56.64       41780972    ---   --   ---xx   gd66-12-01d2t02.shn
     3:01.08       31947260    ---   --   ---xx   gd66-12-01d2t03.shn
    15:09.26      160408796    ---   --   ---xx   gd66-12-01d2t04.shn
     4:40.59       49530812    ---   --   ---xx   gd66-12-01d2t05.shn
     4:57.61       52534316    ---   --   ---xx   gd66-12-01d2t06.shn
     3:08.64       33313772    ---   --   ---xx   gd66-12-01d2t07.shn
     9:34.58      101390060    ---   --   ---xx   gd66-12-01d2t08.shn
     2:52.72       30510188    ---   --   ---xx   gd66-12-01d2t09.shn
    11:00.41      116520476    ---   --   ---xx   gd66-12-01d2t10.shn
     4:15.57       45116848    -b-   --   ---xx   gd66-12-01d2t11.shn
   132:51.25     1406144216 B                     (totals for 26 files, 0.5216 o
verall compression ratio)


Show Checksums
shn-md5
9e1dcc2ec4b1d7cc3572b9bd95e25df0 *gd66-12-01d1t01.shn
dd841ac4730c49a1e32e3123751bba52 *gd66-12-01d1t02.shn
e4898fce8c798b7f4da665e2bd53897d *gd66-12-01d1t03.shn
45d4b687a958627e636a430b3537fe06 *gd66-12-01d1t04.shn
4622e3b12c752db321b09c0e865876b9 *gd66-12-01d1t05.shn
8e6df4942fd2fcd3de348dd0611084c4 *gd66-12-01d1t06.shn
0b0881b1e8fc289354ddb5315e2ced42 *gd66-12-01d1t07.shn
006f881d7d7c3d3c1f76ebd57708491c *gd66-12-01d1t08.shn
4128b59eefcf6a9dd162fadd9ceb15a3 *gd66-12-01d1t09.shn
19cca8af594341a347e6bb6c98045720 *gd66-12-01d1t10.shn
f23f962b48af4d01b5aad216df58aa3f *gd66-12-01d1t11.shn
5ea31d82084b4b1669911e8b55e7f6dd *gd66-12-01d1t12.shn
ca7006d829987d22963d984b0681e1f5 *gd66-12-01d1t13.shn
808d55be81bd4b93aaa90457c99d9b05 *gd66-12-01d1t14.shn
d9a1258d1ba30a824c84b557b299adb9 *gd66-12-01d1t15.shn
f236cf8d407135988896f754eae5c9f7 *gd66-12-01d2t01.shn
2807fa41d74d311d74ac5dfc82c259aa *gd66-12-01d2t02.shn
d593ad8229e3fa585bf0912881a0e17e *gd66-12-01d2t03.shn
142a127d9b1e05f4942f57d967fd8645 *gd66-12-01d2t04.shn
7f66f9da543d802d080c7b1cc8ab7261 *gd66-12-01d2t05.shn
56f09878535f5b4ff0b76d67d1dcf5e7 *gd66-12-01d2t06.shn
c594787c3bc6d7b949403e962c6c018c *gd66-12-01d2t07.shn
87e7058f9961ad100ec7cfe9cba1fb3f *gd66-12-01d2t08.shn
3d0633d2542b6402ce34aa6c7b9712de *gd66-12-01d2t09.shn
1f7e844695abe164965707d7f5f73f08 *gd66-12-01d2t10.shn
0490de4733a675db0d589960da724906 *gd66-12-01d2t11.shn
st5
37f5c63c6ebdf2f2515296d73a64a51c [shntool] gd66-12-01d1t01.shn
e5c39b08a4dbad3e32373b01dd9b0ff7 [shntool] gd66-12-01d1t02.shn
cc6785aea607a1919a65225cea417bf1 [shntool] gd66-12-01d1t03.shn
7df867a615be276736e6b3a81eea741f [shntool] gd66-12-01d1t04.shn
5a8acad58ee2c866bab01bf16a7d17b7 [shntool] gd66-12-01d1t05.shn
4e0765b13a305dc2419a71d06d7df906 [shntool] gd66-12-01d1t06.shn
b55b755e93dbc91a2d0079c621187073 [shntool] gd66-12-01d1t07.shn
a140b622e2ba056ccf7d2fe2feeb590f [shntool] gd66-12-01d1t08.shn
f33f304268e66d0cad2073149294b369 [shntool] gd66-12-01d1t09.shn
41df3c229e4b461569ee5fda20d002af [shntool] gd66-12-01d1t10.shn
4097af13da35121e02cbd9476e11b49e [shntool] gd66-12-01d1t11.shn
20c3d7c7cb1deaef84e4f0a147921751 [shntool] gd66-12-01d1t12.shn
844e9cb8d9fff7b09fc83edc8a8fe3b8 [shntool] gd66-12-01d1t13.shn
f01793f3252d4b44bb336bd9c0c125a1 [shntool] gd66-12-01d1t14.shn
41314c8bbbcba7e9c851f4345299aaa9 [shntool] gd66-12-01d1t15.shn
741c981a293eff43055bceb0d6f25705 [shntool] gd66-12-01d2t01.shn
99f21200dd3b95bdae03e2ba46119a48 [shntool] gd66-12-01d2t02.shn
c4c0333e3ea51d882aa3c31285935d91 [shntool] gd66-12-01d2t03.shn
0d2dbbd61846344f2397c97682fa864c [shntool] gd66-12-01d2t04.shn
7aac392a11a39a2aee4e299efb53c6bd [shntool] gd66-12-01d2t05.shn
1c88f22e55daf37f144c87ad9b2fc176 [shntool] gd66-12-01d2t06.shn
cd15d4f62b42cf845629a338a0aa43e5 [shntool] gd66-12-01d2t07.shn
448091cf91603fef9514d47558433906 [shntool] gd66-12-01d2t08.shn
06babfffdf825e170e02765d0cd241d4 [shntool] gd66-12-01d2t09.shn
a97cd8763ef669f02975cd98cc215912 [shntool] gd66-12-01d2t10.shn
e28a1703499f870a8c64ffd8e695a90d [shntool] gd66-12-01d2t11.shn

Comments
Add Comment
Other Sources (comments)
SBD> Rm> Reel> Dat> CD>... (2) Source: SBD>MR>RR>C>DAT... (3)
Date User Comment
11/29/2004 Dave Winters SIRMick, could you provide a brief description of the noise reduction you performed? Thanks for the effort, I will have to check this out.
11/29/2004 Charlie Miller Is there any reason that the sbe's weren't fixed? The shntool report shows errors on some tracks...cm
11/30/2004 Martin M. Pedersen SBE on the last tracks of each discs isn't a problem.
Just ignore it. Because it is the last track it will create no problem at all.
11/30/2004 Gary What if larger media comes along and they do have an effect? The safest thing to do would be to fix them.
11/30/2004 SIRMick Noise reduction was done with Waves X-Noise plugin using WaveLab as the host
11/30/2004 Charlie Miller If you are going to do any editing on a show, take the extra 2 minutes and fix the SBE's....cm
12/02/2004 Charlie Miller I just did a comparison of the NR and Non-NR versions of this show. I think Nick did a great job and the NR version actually sounds better. I'not a big NR fan, but this is better, IMHO....cm
12/03/2004 doug smith The files I got from Tol were Shn, not FLAC.
It does sound better. Another (reluctant) vote for noise reduction. Thanks SIRMick.
12/03/2004 SIRMick I had originally intended to encode to flac but the friend who I did this for prefered shns and I forgot to change the lineage. I'll arrange for the db entry to be amended.
12/03/2004 Diana Info variously amended here, thanks!
03/16/2011 gator_wine Same unidentified guest sings and plays harp on My Own Fault.
03/17/2011 charliemiller Good catch!