Browse Collections Artists Sources   Search Dates

Add Show    List Management    Help


Grateful Dead 10/01/89
Shoreline Amphitheatre, Mountain View, CA
Comments Add Comment    Source Collectors    Add to Collection    Add to Want List    History
Source # 26989 Other Sources
Entered by dr.unclear
Checksums flac-md5 , ffp
Disc Counts 1 / 1
Media Size
Date Circulated
Date Added
11/30/04
12/01/2004
Source Summary flac16; Unknown SBD source > ? > CDR; Transfer: CDR > EAC > hard drive > CD Wave Editor (tracking) > FLAC (v. 1.7.1) compression level 8; Extraction and minor edit and FLACtion by Gary Field, with thanks to Joey Browning for the CDR 
  Archive
Source Information - Download Text | Download Zip
Grateful Dead
1989-10-01
Shoreline Amphitheatre
Mountain View, CA

Set 1 Only

Source: Unknown SBD source > ? > CDR
Transfer: CDR > EAC > hard drive > CD Wave Editor (tracking) > FLAC (v. 1.7.1) compression level 8

Set 1:
Disc 1:
01. Jack Straw
02. Ramble On Rose
03. Walkin Blues
04. Built to Last
05. When I Paint My Masterpiece
06. Just A Little Light
07. Cassidy
08. Don't Ease Me In

Encore:
09. Knockin on Heaven's Door

There was a brief 0.5 second drop out in Don't Ease that was removed and crossfaded with Sound Forge 7.0.

Thanks to Joey Browning for the CDR.  Extraction and minor edit and FLACtion by Gary Field 11-30-2004.
If anyone can get a hold of the second set, please seed it.

    length     expanded size   cdr  WAVE problems filename
     5:08.43       54432380    ---   --   -----   gd1989-10-01d1t01.wav
     7:03.35       74699564    ---   --   -----   gd1989-10-01d1t02.wav
     6:04.11       64235516    ---   --   -----   gd1989-10-01d1t03.wav
     4:48.05       50815004    ---   --   -----   gd1989-10-01d1t04.wav
     6:12.73       65792540    ---   --   -----   gd1989-10-01d1t05.wav
     4:41.13       49599020    ---   --   -----   gd1989-10-01d1t06.wav
     6:41.35       70818764    ---   --   -----   gd1989-10-01d1t07.wav
     3:45.69       39852332    ---   --   -----   gd1989-10-01d1t08.wav
     6:57.00       73558844    ---   --   -----   gd1989-10-01d1t09.wav
    51:22.59      543803964 B                     (totals for 9 files, 1.0000 overall compression ratio)
Show Checksums
flac-md5
4e3341f2ee6a2ad6d58386cb0eeb8522 *gd1989-10-01d1t05.flac
1a0964a86cbdf021df4ae50e58edd588 *gd1989-10-01d1t02.flac
e97b8d954677cf86040138173f84a4cf *gd1989-10-01d1t03.flac
24eb3c7d5637c642424a5384bd4584eb *gd1989-10-01d1t04.flac
ef5b1923ac353ac9cd03b48701d6fadf *gd1989-10-01d1t01.flac
6608f67a2a35db7267b5634bfd282755 *gd1989-10-01d1t06.flac
89015ae8a9b576f0ad61e35917789075 *gd1989-10-01d1t07.flac
b9c116d178b1d3a259789bdcfc1e04cc *gd1989-10-01d1t08.flac
73dfe383b23d86440a195acd811df744 *gd1989-10-01d1t09.flac
ffp
gd1989-10-01d1t06.flac:dd2960c1282a88b8c7cc40111c955a60
gd1989-10-01d1t02.flac:11fb4fe09240720af294ba86bc561e4b
gd1989-10-01d1t03.flac:0d3fe389b02100ec8e0b80bface696c2
gd1989-10-01d1t04.flac:e793f4af56220d055ed76ee706f3e002
gd1989-10-01d1t05.flac:cc44c818aa62e21595b69b76519f00b8
gd1989-10-01d1t01.flac:16bda46a19aaa066c3ee16a080ea4d8c
gd1989-10-01d1t07.flac:77cd5958b203b4023581c86bc6ce83e0
gd1989-10-01d1t08.flac:8e0d59ff2f076647e1162cfcb92ad411
gd1989-10-01d1t09.flac:b318d45cf830abd8bb6f120958698665

Comments
Add Comment
Other Sources (comments)
AUD>MC>C>CDR; Seeded to... (1) flac16; Recording... (1) flac16; Set 2... (0) flac16; Recording... (0) flac24; Recording... (0) flac16/48kHz; Source... (0) flac16; Recording... (0)
Date User Comment