Browse Collections Artists Sources   Search Dates

Add Show    List Management    Help


Drive-By Truckers 07/30/04
Ziggy's, Winston-Salem, NC
Comments Add Comment    Source Collectors    Add to Collection    Add to Want List    History
Source # 27330 Other Sources
Entered by Kyle pike
Checksums ffp
Disc Counts 2 / 3
Media Size
Date Circulated
Date Added
10/1/2004
12/18/2004
Source Summary SBD + AKG c2000 > Mackie > DA P-1 (Roy Shuler) 
Source Information - Download Text | Download Zip
Drive By Truckers
7/30/04
Ziggy's Winston Salam,NC

source: SBD + AKG c2000 > makie > DA P-1
transfer: Sony R300 > Behringer SP8024 Dig. Eq.> BBE 362 Sonic Maximizer> RNC 1773 Compressor> ART DI/O Dig. Converter> Tascam CDRW4U > EAC > Flac Frontend (level

Taped, Transfer and Mastering by Taper Roy

EAC > Flac and seeded by gordon AT taperssection.com

1. The Tough Sell
2. Carl Perkins Cadillac
3. Goddamn Lonely Love
4. Sinkhole
5. Do It Yourself
6. When The Pin Hits The Shell
7. Uncle Frank
8. (Something?s Got to) Give Pretty Soon
9. Danko & Manuel
10. Never Gonna Change
11. Lookout Mountain
12. Careless
13. Marry Me
14. My Sweet Annette
15. Decoration Day
16. Thank God For The TVA

disc two:

1. Your Daddy Hates Me
2. Daddy's Cup
3. Shut Up and Get On The Plane
4. Heathens
5. Outfit
6. Zip City
7. Road Cases
8. Let There Be Rock

Encore:
9. Crowd/living Bubba Intro
10. The Living Bubba,
11. Guitar Man Upstairs
12. The Company I Keep*
13. The Day John Henry Died

notes:
- *dedicated to Jeff Wall
- big thanks to Roy for getting me the disc to seed! couldn't get dats so I had to seed from disc.
- yes my EAC offset is 0! I know what I'm doing (I've set up many drives) and it came up 0 every time I tested it (10 or more times).
- sector boundary's confirmed with shntool v2.0.3

ffp:
dbt2004-07-30d1t01.flac:c8e2e709b68e9df1184c8fe3321500bf
dbt2004-07-30d1t02.flac:1c97f37593fcfcf9d4872e7ccce25ac1
dbt2004-07-30d1t03.flac:4b2877816d486dc0006ff9ecdcac85b8
dbt2004-07-30d1t04.flac:d957c32f9ab2ade80c0055c285b1d371
dbt2004-07-30d1t05.flac:bed185cc25aff63ac4a9f8b6db3e1782
dbt2004-07-30d1t06.flac:ca66133cf614fc9be628d232b253ae25
dbt2004-07-30d1t07.flac:3e6d49901d1cce4617c7e462385ff93f
dbt2004-07-30d1t08.flac:69261063ba61a1303b7e0cd82a8cf045
dbt2004-07-30d1t09.flac:27093e1d33be6e3caace309e14c71c97
dbt2004-07-30d1t10.flac:776412110e999944d39ef8a2d8f825c7
dbt2004-07-30d1t11.flac:02851bcdcb4d389e35cea9885df21dfc
dbt2004-07-30d1t12.flac:105408fbbcd5f9f9c85e5538d7f175d5
dbt2004-07-30d1t13.flac:ab8f0bf72c3d34310ea355e119e016d9
dbt2004-07-30d1t14.flac:45b26acb813e115aa6ffe0e78e2129a8
dbt2004-07-30d1t15.flac:6b2457e455e5d14744288c960aedf8f3
dbt2004-07-30d1t16.flac:9bbd5ecfaa89e22f9bbbae4f44272ae3
dbt2004-07-30d2t01.flac:34fc8d38587306484e06fc553c12080f
dbt2004-07-30d2t02.flac:220a40e2029c62aae58161e919f2c9df
dbt2004-07-30d2t03.flac:da21bb55f4689ab0242c25e8300ee8bc
dbt2004-07-30d2t04.flac:f03aec96b1d9d0c339f8d914e5547777
dbt2004-07-30d2t05.flac:8ca62103f9ba38fb543c70fb5a8f0cae
dbt2004-07-30d2t06.flac:0bca7c7e8613bba8dddc2a11285c208e
dbt2004-07-30d2t07.flac:c2f0c9c2bf6f70169e93ac38170529ca
dbt2004-07-30d2t08.flac:126474ba5e50713a50f6cc0ce2aa2cac
dbt2004-07-30d2t09.flac:716bda94baa77484309ddb5d97cecc20
dbt2004-07-30d2t10.flac:5277d0617b8d3e751c9d965e36c0e6f1
dbt2004-07-30d2t11.flac:dd6cfd982e9cd18100b4f5cb767c2c98
dbt2004-07-30d2t12.flac:a98b943a311c34a0e1b3acf992268f99
dbt2004-07-30d2t13.flac:4052cee4b83b0aaa7c9cd06eb946a8ed

shntool output:
length expanded size cdr WAVE problems filename
4:30.25 47686844 --- -- ---xx dbt2004-07-30d1t01.flac
5:34.30 58988204 --- -- ---xx dbt2004-07-30d1t02.flac
5:20.70 56612684 --- -- ---xx dbt2004-07-30d1t03.flac
3:34.55 37879004 --- -- ---xx dbt2004-07-30d1t04.flac
3:30.20 37091084 --- -- ---xx dbt2004-07-30d1t05.flac
4:25.30 46816604 --- -- ---xx dbt2004-07-30d1t06.flac
5:05.25 53860844 --- -- ---xx dbt2004-07-30d1t07.flac
4:10.15 44135324 --- -- ---xx dbt2004-07-30d1t08.flac
6:04.45 64315484 --- -- ---xx dbt2004-07-30d1t09.flac
5:35.45 59199884 --- -- ---xx dbt2004-07-30d1t10.flac
4:56.30 52285004 --- -- ---xx dbt2004-07-30d1t11.flac
2:04.65 22026524 --- -- ---xx dbt2004-07-30d1t12.flac
5:57.50 63092444 --- -- ---xx dbt2004-07-30d1t13.flac
4:20.15 45899324 --- -- ---xx dbt2004-07-30d1t14.flac
7:23.10 78168764 --- -- ---xx dbt2004-07-30d1t15.flac
5:39.37 59886668 --- -- ---xx dbt2004-07-30d1t16.flac
6:55.10 73229564 --- -- ---xx dbt2004-07-30d2t01.flac
5:54.20 62492684 --- -- ---xx dbt2004-07-30d2t02.flac
4:25.25 46804844 --- -- ---xx dbt2004-07-30d2t03.flac
5:11.65 55013324 --- -- ---xx dbt2004-07-30d2t04.flac
4:37.15 48898124 --- -- ---xx dbt2004-07-30d2t05.flac
6:00.10 63527564 --- -- ---xx dbt2004-07-30d2t06.flac
2:46.35 29364764 --- -- ---xx dbt2004-07-30d2t07.flac
6:08.10 64938764 --- -- ---xx dbt2004-07-30d2t08.flac
4:45.30 50344604 --- -- ---xx dbt2004-07-30d2t09.flac
6:36.70 70019084 --- -- ---xx dbt2004-07-30d2t10.flac
3:49.50 40513244 --- -- ---xx dbt2004-07-30d2t11.flac
7:56.55 84095804 --- -- ---xx dbt2004-07-30d2t12.flac
4:03.32 42940508 --- -- ---xx dbt2004-07-30d2t13.flac
147:24.19 1487.85 MB (totals for 29 files, 0.6826 overall compression ratio)
Show Checksums
ffp
dbt2004-07-30d1t01.flac:c8e2e709b68e9df1184c8fe3321500bf
dbt2004-07-30d1t02.flac:1c97f37593fcfcf9d4872e7ccce25ac1
dbt2004-07-30d1t03.flac:4b2877816d486dc0006ff9ecdcac85b8
dbt2004-07-30d1t04.flac:d957c32f9ab2ade80c0055c285b1d371
dbt2004-07-30d1t05.flac:bed185cc25aff63ac4a9f8b6db3e1782
dbt2004-07-30d1t06.flac:ca66133cf614fc9be628d232b253ae25
dbt2004-07-30d1t07.flac:3e6d49901d1cce4617c7e462385ff93f
dbt2004-07-30d1t08.flac:69261063ba61a1303b7e0cd82a8cf045
dbt2004-07-30d1t09.flac:27093e1d33be6e3caace309e14c71c97
dbt2004-07-30d1t10.flac:776412110e999944d39ef8a2d8f825c7
dbt2004-07-30d1t11.flac:02851bcdcb4d389e35cea9885df21dfc
dbt2004-07-30d1t12.flac:105408fbbcd5f9f9c85e5538d7f175d5
dbt2004-07-30d1t13.flac:ab8f0bf72c3d34310ea355e119e016d9
dbt2004-07-30d1t14.flac:45b26acb813e115aa6ffe0e78e2129a8
dbt2004-07-30d1t15.flac:6b2457e455e5d14744288c960aedf8f3
dbt2004-07-30d1t16.flac:9bbd5ecfaa89e22f9bbbae4f44272ae3
dbt2004-07-30d2t01.flac:34fc8d38587306484e06fc553c12080f
dbt2004-07-30d2t02.flac:220a40e2029c62aae58161e919f2c9df
dbt2004-07-30d2t03.flac:da21bb55f4689ab0242c25e8300ee8bc
dbt2004-07-30d2t04.flac:f03aec96b1d9d0c339f8d914e5547777
dbt2004-07-30d2t05.flac:8ca62103f9ba38fb543c70fb5a8f0cae
dbt2004-07-30d2t06.flac:0bca7c7e8613bba8dddc2a11285c208e
dbt2004-07-30d2t07.flac:c2f0c9c2bf6f70169e93ac38170529ca
dbt2004-07-30d2t08.flac:126474ba5e50713a50f6cc0ce2aa2cac
dbt2004-07-30d2t09.flac:716bda94baa77484309ddb5d97cecc20
dbt2004-07-30d2t10.flac:5277d0617b8d3e751c9d965e36c0e6f1
dbt2004-07-30d2t11.flac:dd6cfd982e9cd18100b4f5cb767c2c98
dbt2004-07-30d2t12.flac:a98b943a311c34a0e1b3acf992268f99
dbt2004-07-30d2t13.flac:4052cee4b83b0aaa7c9cd06eb946a8ed

Comments
Add Comment
Date User Comment