Browse Collections Artists Sources   Search Dates

Add Show    List Management    Help


Drive-By Truckers 11/12/04
The Parish, Austin, TX
Comments Add Comment    Source Collectors    Add to Collection    Add to Want List    History
Source # 27332 Other Sources
Entered by Kyle pike
Checksums ffp
Disc Counts 2 / 3
Media Size
Date Circulated
Date Added
11/15/04
12/18/2004
Source Summary Beyer M201 (xy) > AD20 > JB3 (Craig Schilling) 
Source Information - Download Text | Download Zip
Drive-By Truckers
November 12, 2004
The Parish
Austin, TX


Source: Beyer M201 (xy) > AD20 > JB3
Transfer: Creative Playcenter > Soundforge > shntool > .flac

Taped and transferred by Craig Schilling ([email protected])


disc 1

01 Where the Devil Don't Stay
02 Sinkhole
03 The Buford Stick
04 Goddamn Lonely Love
05 Outfit
06 Tornados
07 Daddy's Cup
08 Carl Perkin's Cadillac
09 banter
10 The Company I Keep
11 Careless
12 Women Without Whiskey
13 Uncle Frank


disc 2

01 Thank God for the TVA
02 Why Henry Drinks
03 Never Gonna Change
04 Hell No I Ain't Happy
05 Puttin' People on the Moon
06 Marry Me
07 Let Me Roll It
08 Lookout Mountain
09 Love Like This
10 Zip City
11 Let There Be Rock


---------------- flac fingerprint ----------------------

DBT2004-11-12d1t11.flac:ab01c5ced0a3cc31d2ec4ca3781a6660
DBT2004-11-12d1t12.flac:4b1dfe90faab8c7f18a0297c9694b3fa
DBT2004-11-12d1t13.flac:0c14dc3c982cab6b64beccb771142d31
DBT2004-11-12d2t01.flac:6b64f03668af4a9736e06498cf15c0e4
DBT2004-11-12d2t02.flac:4ef5a72ad20e456d3f2b117e16db56d0
DBT2004-11-12d2t03.flac:5452359fb2888b79659415ae8787f92e
DBT2004-11-12d2t04.flac:ea34a2e778a78cc189d42b493d2cdad1
DBT2004-11-12d2t05.flac:412cbfd91c87c7207d5f85d6c7f50a54
DBT2004-11-12d2t06.flac:c534f6382540c49fdcb23a7f86cbc9fe
DBT2004-11-12d2t07.flac:20e1ed02bb30badccf4c8011abb4267f
DBT2004-11-12d2t08.flac:9f3c525774ba656893c56df377a7ade4
DBT2004-11-12d2t09.flac:ab4e490215ac870622ce64db54460b07
DBT2004-11-12d2t10.flac:e67076a4709e2409888a49190252987c
DBT2004-11-12d2t11.flac:cb18ad76f4cfac7f9f6d8b4dd653d102
DBT2004-11-12d1t01.flac:15b97dcdae1884ce599122fe4ccf97af
DBT2004-11-12d1t02.flac:102928b7905c96966bab8f0b10d43a46
DBT2004-11-12d1t03.flac:6e210e5e1cce97992fe4198390bc3eb0
DBT2004-11-12d1t04.flac:f451f5ce9ac14471349da6bef6af6a51
DBT2004-11-12d1t05.flac:99c93841afa62b137e7690cc390367b4
DBT2004-11-12d1t06.flac:bcd57f016cc6efd33e43e4b1b62293f0
DBT2004-11-12d1t07.flac:9e36c4848e749cb9cf7cb1bb49209a91
DBT2004-11-12d1t08.flac:3b01bb1139102dc8c04621f7aff2b14c
DBT2004-11-12d1t09.flac:e5c3a83457638fa7c7062a12286f4945
DBT2004-11-12d1t10.flac:f76bbd03977ded612eaa038f0f2105c2

--------------------------------------------------------


shntool output:


length expanded size cdr WAVE problems filename
6:13.02 65801948 --- -- ---xx DBT2004-11-12d1t01.flac
3:39.54 38758652 --- -- ---xx DBT2004-11-12d1t02.flac
4:41.44 49671932 --- -- ---xx DBT2004-11-12d1t03.flac
5:53.26 62330396 --- -- ---xx DBT2004-11-12d1t04.flac
5:11.53 54985100 --- -- ---xx DBT2004-11-12d1t05.flac
5:14.40 55483724 --- -- ---xx DBT2004-11-12d1t06.flac
6:02.52 63979148 --- -- ---xx DBT2004-11-12d1t07.flac
5:39.60 59940764 --- -- ---xx DBT2004-11-12d1t08.flac
2:35.37 27429068 --- -- ---xx DBT2004-11-12d1t09.flac
8:01.57 84982508 --- -- ---xx DBT2004-11-12d1t10.flac
2:09.15 22790924 --- -- ---xx DBT2004-11-12d1t11.flac
4:28.17 47315228 --- -- ---xx DBT2004-11-12d1t12.flac
5:24.58 57290060 --- -- ---xx DBT2004-11-12d1t13.flac
6:02.06 63870956 --- -- ---xx DBT2004-11-12d2t01.flac
5:21.49 56739692 --- -- ---xx DBT2004-11-12d2t02.flac
5:57.64 63125372 --- -- ---xx DBT2004-11-12d2t03.flac
7:47.73 82550540 --- -- ---xx DBT2004-11-12d2t04.flac
10:47.10 114154364 --- -- ---xx DBT2004-11-12d2t05.flac
5:51.52 62038748 --- -- ---xx DBT2004-11-12d2t06.flac
6:14.55 66103004 --- -- ---xx DBT2004-11-12d2t07.flac
5:24.44 57257132 --- -- ---xx DBT2004-11-12d2t08.flac
6:21.50 67326044 --- -- ---xx DBT2004-11-12d2t09.flac
5:24.17 57193628 --- -- ---xx DBT2004-11-12d2t10.flac
7:27.65 79003724 --- -- ---xx DBT2004-11-12d2t11.flac
137:57.25 1460122656 B (totals for 24 files, 0.5617 o
verall compression ratio)
Show Checksums
ffp
DBT2004-11-12d1t11.flac:ab01c5ced0a3cc31d2ec4ca3781a6660
DBT2004-11-12d1t12.flac:4b1dfe90faab8c7f18a0297c9694b3fa
DBT2004-11-12d1t13.flac:0c14dc3c982cab6b64beccb771142d31
DBT2004-11-12d2t01.flac:6b64f03668af4a9736e06498cf15c0e4
DBT2004-11-12d2t02.flac:4ef5a72ad20e456d3f2b117e16db56d0
DBT2004-11-12d2t03.flac:5452359fb2888b79659415ae8787f92e
DBT2004-11-12d2t04.flac:ea34a2e778a78cc189d42b493d2cdad1
DBT2004-11-12d2t05.flac:412cbfd91c87c7207d5f85d6c7f50a54
DBT2004-11-12d2t06.flac:c534f6382540c49fdcb23a7f86cbc9fe
DBT2004-11-12d2t07.flac:20e1ed02bb30badccf4c8011abb4267f
DBT2004-11-12d2t08.flac:9f3c525774ba656893c56df377a7ade4
DBT2004-11-12d2t09.flac:ab4e490215ac870622ce64db54460b07
DBT2004-11-12d2t10.flac:e67076a4709e2409888a49190252987c
DBT2004-11-12d2t11.flac:cb18ad76f4cfac7f9f6d8b4dd653d102
DBT2004-11-12d1t01.flac:15b97dcdae1884ce599122fe4ccf97af
DBT2004-11-12d1t02.flac:102928b7905c96966bab8f0b10d43a46
DBT2004-11-12d1t03.flac:6e210e5e1cce97992fe4198390bc3eb0
DBT2004-11-12d1t04.flac:f451f5ce9ac14471349da6bef6af6a51
DBT2004-11-12d1t05.flac:99c93841afa62b137e7690cc390367b4
DBT2004-11-12d1t06.flac:bcd57f016cc6efd33e43e4b1b62293f0
DBT2004-11-12d1t07.flac:9e36c4848e749cb9cf7cb1bb49209a91
DBT2004-11-12d1t08.flac:3b01bb1139102dc8c04621f7aff2b14c
DBT2004-11-12d1t09.flac:e5c3a83457638fa7c7062a12286f4945
DBT2004-11-12d1t10.flac:f76bbd03977ded612eaa038f0f2105c2

Comments
Add Comment
Date User Comment