Browse Collections Artists Sources   Search Dates

Add Show    List Management    Help


Drive-By Truckers 11/27/04
The Tabernacle, Atlanta, GA
Comments Add Comment    Source Collectors    Add to Collection    Add to Want List    History
Source # 27335 Other Sources
Entered by Kyle pike
Checksums ffp
Disc Counts 2 / 3
Media Size
Date Circulated
Date Added
11/29/04
12/18/2004
Source Summary Neumann KM-184 > V2 > ADC-20 > ODL-276 > JB3 (Sloan Simpson) 
Source Information - Download Text | Download Zip
Drive-By Truckers - 11/27/04
Tabernacle - Atlanta, GA

Disc One:

01) Tornadoes
02) Where The Devil Don't Stay
03) The Day John Henry Died
04) Puttin' People On The Moon
05) Sink Hole
06) Cottonseed
07) The Buford Stick
08) The Living Bubba
09) Never Gonna Change
10) Let Me Roll It*
11) The Company I Keep

Disc Two:

01) Carl Perkins' Cadillac
02) Daddy's Cup
03) The Boys From Alabama
04) Goddamn Lonely Love
05) Heathens
06) Bulldozers And Dirt
07) Shut Up And Get On The Plane
08) Do It Yourself
09) Nine Bullets
10) Hell No I Ain't Happy
11) Lookout Mountain

Disc Three:

01) E:) Grandaddy
02) Sands Of Iwo Jima
03) Danko/Manuel
04) Careless
05) Zip City
06) Outfit
07) Too Much Sex, Too Little Jesus
08) Women Without Whiskey
09) Let There Be Rock

* w/ Luther Dickinson (North Mississippi Allstars) - guitar

www.drivebytruckers.com

Patterson Hood - guitar, vocals
Mike Cooley - guitar, vocals
Jason Isbell - guitar, vocals
Shonna Tucker - bass vocals
Brad "The EZB" Morgan - drums

Source: Neumann KM-184(DIN/Floor/Down Front)> Lunatec V2> Graham-Patten ADC-20> Hosa ODL-276> Nomad Jukebox 3
(D2T08-09 patched with AKG 483> HHB PDR-1000)
Transfer: Nomad Jukebox 3> Firewire> Cool Edit Pro(Patch/DSP/SRC)> CDWave> FLAC Frontend

Taped and transferred by Sloan Simpson
Thanks to Chris Pennington for the patch source.

dbt2004-11-27d1t01.flac:89ac97fe3940de664519d4af0c5ab368
dbt2004-11-27d1t02.flac:0a851757789660d0434a6b0585c60122
dbt2004-11-27d1t03.flac:0a019dea1f0520d8e9c31eb853604d1c
dbt2004-11-27d1t04.flac:16924f21387bf60c0d7abbd52665c437
dbt2004-11-27d1t05.flac:bb457bc2123195f36a6f26e2b7908e9a
dbt2004-11-27d1t06.flac:ffd567a54df109e80a8ff358cdd680a5
dbt2004-11-27d1t07.flac:f46a330bb5df8bbcd97706fff7c16a74
dbt2004-11-27d1t08.flac:d055d14fd2d27b0e0270d181a03cb052
dbt2004-11-27d1t09.flac:abd36f91fd849f7c7e093d474362feb5
dbt2004-11-27d1t10.flac:95b62a4d569930c5a487323301c61f18
dbt2004-11-27d1t11.flac:55cf2d56e1da29e62eea149ed16c639a
dbt2004-11-27d2t01.flac:0cf5fd74154496170e5db529148cd7da
dbt2004-11-27d2t02.flac:2045ac40d2fa5719cde8b6dae12f3a2a
dbt2004-11-27d2t03.flac:b1a9289512cdd2baf365f503681b6006
dbt2004-11-27d2t04.flac:d9528b1708a8d78226fce025d6b132b3
dbt2004-11-27d2t05.flac:d9d63646c13ab1cc880d09b743c51256
dbt2004-11-27d2t06.flac:718a95a31c94627297546ce742dd25d5
dbt2004-11-27d2t07.flac:65abddcf8317144838247fbf783ffb9a
dbt2004-11-27d2t08.flac:d052780e5581720fac6cf6352464dc04
dbt2004-11-27d2t09.flac:35d5124986a8785bb96a1ec1c4a5081b
dbt2004-11-27d2t10.flac:6293c3e24f02ad083af32dd9e7cd74ba
dbt2004-11-27d3t01.flac:ac37261c3f43b459c0882eff183efed3
dbt2004-11-27d3t02.flac:e155ecd0a05ff8034bd8ff3a8ba08f72
dbt2004-11-27d3t03.flac:5205a7b4b7603187a55446332abfb5e8
dbt2004-11-27d3t04.flac:b754f67547b6067eaae0f27c7b8684b1
dbt2004-11-27d3t05.flac:a39f2fc7d56d7bbdc0d60dfab87eae13
dbt2004-11-27d3t06.flac:ec4c36bf45b124fe2a35797089b5ddb1
dbt2004-11-27d3t07.flac:9c77d8fa24bc25e80b8f2ebf60513ff9
dbt2004-11-27d3t08.flac:d16d7589b1e4b51b11fae361f3965e7b
dbt2004-11-27d3t09.flac:bc6481fb11a9d0c802f2c579c8f42dce

length expanded size cdr WAVE problems filename
5:34.69 59079932 --- -- ---xx dbt2004-11-27d1t01.flac
5:21.12 56652668 --- -- ---xx dbt2004-11-27d1t02.flac
3:57.31 41879756 --- -- ---xx dbt2004-11-27d1t03.flac
5:06.03 53985500 --- -- ---xx dbt2004-11-27d1t04.flac
3:57.45 41912684 --- -- ---xx dbt2004-11-27d1t05.flac
6:54.14 73062572 --- -- ---xx dbt2004-11-27d1t06.flac
4:51.67 51490028 --- -- ---xx dbt2004-11-27d1t07.flac
7:11.69 76190732 --- -- ---xx dbt2004-11-27d1t08.flac
6:09.62 65237468 --- -- ---xx dbt2004-11-27d1t09.flac
6:09.74 65265692 --- -- ---xx dbt2004-11-27d1t10.flac
8:09.60 86400764 --- -- ---xx dbt2004-11-27d1t11.flac
5:52.43 62193980 --- -- ---xx dbt2004-11-27d2t01.flac
6:27.36 68351516 --- -- ---xx dbt2004-11-27d2t02.flac
7:56.44 84069932 --- -- ---xx dbt2004-11-27d2t03.flac
7:28.47 79137788 --- -- ---xx dbt2004-11-27d2t04.flac
5:11.29 54928652 --- -- ---xx dbt2004-11-27d2t05.flac
6:57.45 73664684 --- -- ---xx dbt2004-11-27d2t06.flac
7:47.30 82449404 --- -- ---xx dbt2004-11-27d2t07.flac
4:23.60 46534364 --- -- ---xx dbt2004-11-27d2t08.flac
6:35.39 69769772 --- -- ---xx dbt2004-11-27d2t09.flac
8:43.62 92403068 --- -- ---xx dbt2004-11-27d2t10.flac
4:08.03 43754300 --- -- ---xx dbt2004-11-27d3t01.flac
6:51.04 72509852 --- -- ---xx dbt2004-11-27d3t02.flac
6:09.52 65213948 --- -- ---xx dbt2004-11-27d3t03.flac
2:09.67 22913228 --- -- ---xx dbt2004-11-27d3t04.flac
5:25.23 57384140 --- -- ---xx dbt2004-11-27d3t05.flac
4:30.41 47724476 --- -- ---xx dbt2004-11-27d3t06.flac
4:05.15 43253324 --- -- ---xx dbt2004-11-27d3t07.flac
4:24.23 46623740 --- -- ---xx dbt2004-11-27d3t08.flac
7:29.40 79297724 --- -- ---xx dbt2004-11-27d3t09.flac
176:03.09 1863335688 B (totals for 30 files, 0.5708 o
verall compression ratio)
Show Checksums
ffp
dbt2004-11-27d1t01.flac:89ac97fe3940de664519d4af0c5ab368
dbt2004-11-27d1t02.flac:0a851757789660d0434a6b0585c60122
dbt2004-11-27d1t03.flac:0a019dea1f0520d8e9c31eb853604d1c
dbt2004-11-27d1t04.flac:16924f21387bf60c0d7abbd52665c437
dbt2004-11-27d1t05.flac:bb457bc2123195f36a6f26e2b7908e9a
dbt2004-11-27d1t06.flac:ffd567a54df109e80a8ff358cdd680a5
dbt2004-11-27d1t07.flac:f46a330bb5df8bbcd97706fff7c16a74
dbt2004-11-27d1t08.flac:d055d14fd2d27b0e0270d181a03cb052
dbt2004-11-27d1t09.flac:abd36f91fd849f7c7e093d474362feb5
dbt2004-11-27d1t10.flac:95b62a4d569930c5a487323301c61f18
dbt2004-11-27d1t11.flac:55cf2d56e1da29e62eea149ed16c639a
dbt2004-11-27d2t01.flac:0cf5fd74154496170e5db529148cd7da
dbt2004-11-27d2t02.flac:2045ac40d2fa5719cde8b6dae12f3a2a
dbt2004-11-27d2t03.flac:b1a9289512cdd2baf365f503681b6006
dbt2004-11-27d2t04.flac:d9528b1708a8d78226fce025d6b132b3
dbt2004-11-27d2t05.flac:d9d63646c13ab1cc880d09b743c51256
dbt2004-11-27d2t06.flac:718a95a31c94627297546ce742dd25d5
dbt2004-11-27d2t07.flac:65abddcf8317144838247fbf783ffb9a
dbt2004-11-27d2t08.flac:d052780e5581720fac6cf6352464dc04
dbt2004-11-27d2t09.flac:35d5124986a8785bb96a1ec1c4a5081b
dbt2004-11-27d2t10.flac:6293c3e24f02ad083af32dd9e7cd74ba
dbt2004-11-27d3t01.flac:ac37261c3f43b459c0882eff183efed3
dbt2004-11-27d3t02.flac:e155ecd0a05ff8034bd8ff3a8ba08f72
dbt2004-11-27d3t03.flac:5205a7b4b7603187a55446332abfb5e8
dbt2004-11-27d3t04.flac:b754f67547b6067eaae0f27c7b8684b1
dbt2004-11-27d3t05.flac:a39f2fc7d56d7bbdc0d60dfab87eae13
dbt2004-11-27d3t06.flac:ec4c36bf45b124fe2a35797089b5ddb1
dbt2004-11-27d3t07.flac:9c77d8fa24bc25e80b8f2ebf60513ff9
dbt2004-11-27d3t08.flac:d16d7589b1e4b51b11fae361f3965e7b
dbt2004-11-27d3t09.flac:bc6481fb11a9d0c802f2c579c8f42dce

Comments
Add Comment
Other Sources (comments)
AKG 481 > Oade 248 > Mod... (0)
Date User Comment