Browse Collections Artists Sources   Search Dates

Add Show    List Management    Help


Drive-By Truckers 12/10/04
Visulite Theatre, Charlotte, NC
Comments Add Comment    Source Collectors    Add to Collection    Add to Want List    History
Source # 27336 Other Sources
Entered by Kyle pike
Checksums ffp
Disc Counts 2 / 3
Media Size
Date Circulated
Date Added
12/11/04
12/18/2004
Source Summary AKG 481 > V3 > DAP1 (Gordon Wilson) 
  Archive
Source Information - Download Text | Download Zip
Drive By Truckers

12-10-2004
The Visulite Theater
Charlotte,NC

source:  AKG 481 (ortf) > V3 > DAP1 @ 44.1
location: FOB 2'LOC on the drink rail about 20' from the stage
transfer: dap1 > audiophile 24/96 > soundforge 6.0 > cd wave > flac frontend (level

taped and transfered by Gordon Wilson,  gordon AT taperssection.com

disc one:

1. Where The Devil Don't Stay
2. The Buford Stick
3. Never Gonna Change
4. Sinkhole
5. Uncle Frank
6. When the Pin Hits the Shel
7. Boys From Alabama
8. Rebels
9. Nine Bullets
10. Decoration Day
11. Puttin' People On The Moon

disc two:

1. Daddy's Cup
2. Company I keep
3. Hell No, I Ain't Happy
4. Goddamn Lonely Love
5. Outfit
6. Ronnie and Neil
7. Carl Perkins? Cadillac
8. Lookout Mountain

encore:
10. Whisper*
11. Women Without whiskey
12. Shut Up and Get on the Plane
13. Careless
14. Play it all Night Long
15. Let There Be Rock


notes:
-  * Jason Solo
-  thanks to Tony for the clamp space
-  fades added at beginning and end of disc with soundforge 6.0
-  crowd noise before encore cut and a fade added to fit on 2 disc
-  sector boundary's confirmed with shntool v2.0.3
-  d1t07 had a drop out from the dat master but only when played on my dap1 (even after a cleaning tape).  when played on my DA20mkII it was clean.
-  drop out was spliced with DA20mkII >audiophile 24/96 > soundforge 6.0 to make the track seamless
-  any pops or static heard is from the PA and/or the clapper below the stand.  nothing major

ffp:
dbt2004-12-10d1t01.flac:a04c8263ab3802a3c7c3fcf0592560be
dbt2004-12-10d1t02.flac:255ba815b0530727729e80ce91fd4b20
dbt2004-12-10d1t03.flac:a7c6dd26999a637696c0eae29fe770fc
dbt2004-12-10d1t04.flac:2a6eb3e2a424c578e2197952372b9c08
dbt2004-12-10d1t05.flac:8fd922c80f2f44390940da3996283def
dbt2004-12-10d1t06.flac:14ed75d7b1f2f0429093f94461a30922
dbt2004-12-10d1t07.flac:ad6b5fb1f52f686978c6de30316f487e
dbt2004-12-10d1t08.flac:72982134945411c2a44fa55f3a617c77
dbt2004-12-10d1t09.flac:e8bfb28d13cf0234f7306b5019a0fe17
dbt2004-12-10d1t10.flac:7ddb1734b10d3deba7cb79d975e290d8
dbt2004-12-10d1t11.flac:ce9e202d56f5fdcae6f7e059dbd9b74c
dbt2004-12-10d2t01.flac:7894291b99331085afc4e6262c23bf1b
dbt2004-12-10d2t02.flac:190ce2c7a03efd7c085a3cdf7ee317b6
dbt2004-12-10d2t03.flac:232652515ad9e3014bb5d19bc61477fe
dbt2004-12-10d2t04.flac:8b1da322babd34919cd813d161da2145
dbt2004-12-10d2t05.flac:7ccffb32fb726934cbb26813e82bfa76
dbt2004-12-10d2t06.flac:d7490c5e5af99787c8c906fc1afd0aec
dbt2004-12-10d2t07.flac:de4998013ce92c048c11e14b1de9df93
dbt2004-12-10d2t08.flac:e9463ea76ba31c2c86ea7970cbb27452
dbt2004-12-10d2t09.flac:96cf3e22505550ed70f8c8c44182b291
dbt2004-12-10d2t10.flac:f243d780a9249b6564a730d5428c5ea4
dbt2004-12-10d2t11.flac:847eefbc99481990ba18029ac1ce9ee7
dbt2004-12-10d2t12.flac:f05f62a651854d355cc353025e434899
dbt2004-12-10d2t13.flac:7423b7f605fb48c4fb3f9708a2aaa76f
dbt2004-12-10d2t14.flac:67e58cc8111018953b6ac36f1b9b3579

shntool output:
    length     expanded size   cdr  WAVE problems filename
     5:42.60       60469964    ---   --   ---xx   dbt2004-12-10d1t01.flac
     4:48.66       50958476    ---   --   ---xx   dbt2004-12-10d1t02.flac
     5:38.68       59783180    ---   --   ---xx   dbt2004-12-10d1t03.flac
     3:47.72       40212188    ---   --   ---xx   dbt2004-12-10d1t04.flac
     5:15.17       55606028    ---   --   ---xx   dbt2004-12-10d1t05.flac
     4:15.38       45071420    ---   --   ---xx   dbt2004-12-10d1t06.flac
     8:06.65       85883324    ---   --   ---xx   dbt2004-12-10d1t07.flac
     5:15.28       55631900    ---   --   ---xx   dbt2004-12-10d1t08.flac
     4:33.63       48305420    ---   --   ---xx   dbt2004-12-10d1t09.flac
     7:02.24       74497292    ---   --   ---xx   dbt2004-12-10d1t10.flac
     5:11.34       54940412    ---   --   ---xx   dbt2004-12-10d1t11.flac
     6:03.23       64087340    ---   --   ---xx   dbt2004-12-10d2t01.flac
     8:03.44       85304732    ---   --   ---xx   dbt2004-12-10d2t02.flac
     7:27.07       78867308    ---   --   ---xx   dbt2004-12-10d2t03.flac
     4:57.35       52473164    ---   --   ---xx   dbt2004-12-10d2t04.flac
     5:05.19       53846732    ---   --   ---xx   dbt2004-12-10d2t05.flac
     5:29.14       58068572    ---   --   ---xx   dbt2004-12-10d2t06.flac
     5:29.51       58155596    ---   --   ---xx   dbt2004-12-10d2t07.flac
     5:10.19       54728732    ---   --   ---xx   dbt2004-12-10d2t08.flac
     7:05.36       75054716    ---   --   ---xx   dbt2004-12-10d2t09.flac
     4:36.33       48764060    ---   --   ---xx   dbt2004-12-10d2t10.flac
     4:17.52       45457148    ---   --   ---xx   dbt2004-12-10d2t11.flac
     2:13.00       23461244    ---   --   ---xx   dbt2004-12-10d2t12.flac
     5:59.05       63339404    ---   --   ---xx   dbt2004-12-10d2t13.flac
     7:15.53       76858700    ---   --   ---xx   dbt2004-12-10d2t14.flac
   138:52.26        1401.74 MB                    (totals for 25 files, 0.5641 overall compression ratio)
Show Checksums
ffp
dbt2004-12-10d1t01.flac:a04c8263ab3802a3c7c3fcf0592560be
dbt2004-12-10d1t02.flac:255ba815b0530727729e80ce91fd4b20
dbt2004-12-10d1t03.flac:a7c6dd26999a637696c0eae29fe770fc
dbt2004-12-10d1t04.flac:2a6eb3e2a424c578e2197952372b9c08
dbt2004-12-10d1t05.flac:8fd922c80f2f44390940da3996283def
dbt2004-12-10d1t06.flac:14ed75d7b1f2f0429093f94461a30922
dbt2004-12-10d1t07.flac:ad6b5fb1f52f686978c6de30316f487e
dbt2004-12-10d1t08.flac:72982134945411c2a44fa55f3a617c77
dbt2004-12-10d1t09.flac:e8bfb28d13cf0234f7306b5019a0fe17
dbt2004-12-10d1t10.flac:7ddb1734b10d3deba7cb79d975e290d8
dbt2004-12-10d1t11.flac:ce9e202d56f5fdcae6f7e059dbd9b74c
dbt2004-12-10d2t01.flac:7894291b99331085afc4e6262c23bf1b
dbt2004-12-10d2t02.flac:190ce2c7a03efd7c085a3cdf7ee317b6
dbt2004-12-10d2t03.flac:232652515ad9e3014bb5d19bc61477fe
dbt2004-12-10d2t04.flac:8b1da322babd34919cd813d161da2145
dbt2004-12-10d2t05.flac:7ccffb32fb726934cbb26813e82bfa76
dbt2004-12-10d2t06.flac:d7490c5e5af99787c8c906fc1afd0aec
dbt2004-12-10d2t07.flac:de4998013ce92c048c11e14b1de9df93
dbt2004-12-10d2t08.flac:e9463ea76ba31c2c86ea7970cbb27452
dbt2004-12-10d2t09.flac:96cf3e22505550ed70f8c8c44182b291
dbt2004-12-10d2t10.flac:f243d780a9249b6564a730d5428c5ea4
dbt2004-12-10d2t11.flac:847eefbc99481990ba18029ac1ce9ee7
dbt2004-12-10d2t12.flac:f05f62a651854d355cc353025e434899
dbt2004-12-10d2t13.flac:7423b7f605fb48c4fb3f9708a2aaa76f
dbt2004-12-10d2t14.flac:67e58cc8111018953b6ac36f1b9b3579

Comments
Add Comment
Date User Comment