Browse Collections Artists Sources   Search Dates

Add Show    List Management    Help


40 Watt X-Mas Party 12/13/04
40 Watt Club, Athens, GA
Comments Add Comment    Source Collectors    Add to Collection    Add to Want List    History
Source # 27344 Other Sources
Entered by Kyle pike
Checksums ffp
Disc Counts 2 / 3
Media Size
Date Circulated
Date Added
12/16/04
12/19/2004
Source Summary 40 Watt Chrsitmas Party: SBD > M1 + Neumann KM-184 > V2 > JB3 (Sloan Simpson) 
Source Information - Download Text | Download Zip
40 Watt X-Mas Party - 12/13/04
40 Watt Club - Athens, GA

Disc One:

01) [JP]
02) I Found You [CL]
03) [JP]
04) February Rose [CL]
05) No Words [CL]
06) On And On [AM]
07) Sand Mountain [AM]
08) Radio Wave [CL]
09) Thunderbolt [AM]
10) [JP]
11) [JP]
12) The Country Song [KK]
13) In The Land Of Plenty [KK]

Disc Two:

01) This Train Don't Stop At The Millworks Anymore [KK]
02) On A Roll [AM]
03) Could It Be [AM]
04) Back In The Woods [DC]
05) Black Creek Water [DC]
06) My Sweet Annette [PH]
07) Murdering Oscar [PH]
08) Mark Of The Beast [AM]
09) Love County [CL]
10) Mrs. Claus' Kimono [PH]
11) Uncle Raymond [DC]
12) Tales Facing Up [PH]

Disc Three:

01) Silent Night [CL]
02) Grandma Got Run Over By A Reindeer [CL]
03) Jingle Bells [CL]
04) Happy [CL]
05) If Drinkin' Don't Kill Me (Her Memory Will) [AM/CL]
06) TVA [JI]
07) Atlantic City [JI]
08) Turn To Stone [PH]
09) Baby I Just Wanna Go Home [KK]
10) Let's Go Dancing [KK]
11) Buttholeville [PH]

www.40watt.com

David Blackmon - violin
Don Chambers - banjo, guitar, vocals
Patterson Hood - guitar, vocals
Bryan Howard - bass
Jason Isbell - guitar, bass, vocals
Kevn Kinney - guitar, vocals
Clay Leverett - guitar, vocals
Brad "The EZB" Morgan - snare drum
Adam Musick - guitar, pedal steel guitar, vocals
Joseph Plunkett - guitar, vocals
Laney Strickland - guitar
William Tonks - dobro, vocals
Shonna Tucker - bass, guitar, vocals

Post-Mix Sources: [Soundboard> Sony PCM-M1] + [Neumann KM-184(DIN)> Lunatec V2> Nomad Jukebox 3]
Transfers: [Sony PCM-M1> S/PDIF> Hosa ODL-276>] Nomad Jukebox 3> Firewire> Cool Edit Pro(Mix/DSP/SRC)> CDWave> FLAC Frontend

Recorded, transferred and mixed by Sloan Simpson

40wattxmas2004-12-13d1t01.flac:96c86c07f455127811558bebb2848ee7
40wattxmas2004-12-13d1t02.flac:04aa0201cd58666f6d18a8a16636e461
40wattxmas2004-12-13d1t03.flac:be551296dfe97cd3665d9131ab397ccc
40wattxmas2004-12-13d1t04.flac:356cdb553404cda5fad7e5691e58f905
40wattxmas2004-12-13d1t05.flac:741b2fc00473f53fa6b951d685403603
40wattxmas2004-12-13d1t06.flac:eaf6c4cad25e1253c04e842602e305a4
40wattxmas2004-12-13d1t07.flac:67633ce670c8d44214c8e08323a8e01a
40wattxmas2004-12-13d1t08.flac:1a57f70be302e8cd37c15e3683c31608
40wattxmas2004-12-13d1t09.flac:b692679aea5471fe63782cdb6a934a2e
40wattxmas2004-12-13d1t10.flac:625869c78d35450ba5cf5870a19de440
40wattxmas2004-12-13d1t11.flac:3d61cb9ea4ea3fe024f6b4e587e6d393
40wattxmas2004-12-13d1t12.flac:9010b73a55f8e879150be6c18ef66032
40wattxmas2004-12-13d1t13.flac:e0e48ddb84f7f0153f8d6b85058d629a
40wattxmas2004-12-13d2t01.flac:c155c927e429a67c6e1e333db3dd768f
40wattxmas2004-12-13d2t02.flac:e9ef0a33b7aef392b46d6cddf444d2ee
40wattxmas2004-12-13d2t03.flac:e76260eeb64bc183b4c65aeeaea2a3c6
40wattxmas2004-12-13d2t04.flac:1e576942239671edaf67e11c2b0c3906
40wattxmas2004-12-13d2t05.flac:bf492c277b0911b17111b9b88ef8d6c6
40wattxmas2004-12-13d2t06.flac:afa506d3a77db7fd4942c9f0fe694ee1
40wattxmas2004-12-13d2t07.flac:2e8319b4a222f6b307e52633f333c967
40wattxmas2004-12-13d2t08.flac:16ab8080c0e119b6022cbb96ba4ba8d2
40wattxmas2004-12-13d2t09.flac:3a4e3f0afb514f2187de998d5ebf7eec
40wattxmas2004-12-13d2t10.flac:de3f7ef6fd947f0c871270edbf09279f
40wattxmas2004-12-13d2t11.flac:cc407f97ccc1719e3a931d8f169fd857
40wattxmas2004-12-13d2t12.flac:9f56688f4ac4f0740b3f4f4bdcf652d2
40wattxmas2004-12-13d3t01.flac:ccbb260549a83afc8e00faa957339fee
40wattxmas2004-12-13d3t02.flac:363ecbff00d6268139bd0eeb3d625365
40wattxmas2004-12-13d3t03.flac:a78cae8fdf1dde9cac143e34f1cb16cc
40wattxmas2004-12-13d3t04.flac:c95fb895a956528b62883dac1d85368d
40wattxmas2004-12-13d3t05.flac:806652a8952d1ba620b394718740655f
40wattxmas2004-12-13d3t06.flac:b077daae0a4e3ff309f50a4c566b8149
40wattxmas2004-12-13d3t07.flac:6b17d45a961be2c19351f25f16889afb
40wattxmas2004-12-13d3t08.flac:88b28e7fcdf24473be6b92529d247696
40wattxmas2004-12-13d3t09.flac:7d38fdb2bfadfc4208b6a5c1a341c379
40wattxmas2004-12-13d3t10.flac:3705bd7d6ddbcd14e28b4afd705bd47b
40wattxmas2004-12-13d3t11.flac:439de19601e306e6ba056fbb4b376e8f

length expanded size cdr WAVE problems filename
8:12.44 86892332 --- -- ---xx 40wattxmas2004-12-13d1t01.flac

3:36.38 38191820 --- -- ---xx 40wattxmas2004-12-13d1t02.flac

5:54.04 62455052 --- -- ---xx 40wattxmas2004-12-13d1t03.flac

3:01.64 32078972 --- -- ---xx 40wattxmas2004-12-13d1t04.flac

4:18.43 45612380 --- -- ---xx 40wattxmas2004-12-13d1t05.flac

3:45.33 39767660 --- -- ---xx 40wattxmas2004-12-13d1t06.flac

5:38.59 59762012 --- -- ---xx 40wattxmas2004-12-13d1t07.flac

5:29.06 58049756 --- -- ---xx 40wattxmas2004-12-13d1t08.flac

5:21.35 56706764 --- -- ---xx 40wattxmas2004-12-13d1t09.flac

5:44.36 60766316 --- -- ---xx 40wattxmas2004-12-13d1t10.flac

10:53.47 115299788 --- -- ---xx 40wattxmas2004-12-13d1t11.flac

4:47.00 50626844 --- -- ---xx 40wattxmas2004-12-13d1t12.flac

4:58.71 52734236 --- -- ---xx 40wattxmas2004-12-13d1t13.flac

12:26.06 131608556 --- -- ---xx 40wattxmas2004-12-13d2t01.flac

3:40.58 38944460 --- -- ---xx 40wattxmas2004-12-13d2t02.flac

4:42.52 49867148 --- -- ---xx 40wattxmas2004-12-13d2t03.flac

6:14.31 66046556 --- -- ---xx 40wattxmas2004-12-13d2t04.flac

6:01.69 63842732 --- -- ---xx 40wattxmas2004-12-13d2t05.flac

4:56.42 52313228 --- -- ---xx 40wattxmas2004-12-13d2t06.flac

4:17.10 45358364 --- -- ---xx 40wattxmas2004-12-13d2t07.flac

5:20.62 56593868 --- -- ---xx 40wattxmas2004-12-13d2t08.flac

5:01.63 53244620 --- -- ---xx 40wattxmas2004-12-13d2t09.flac

6:30.58 68932460 --- -- ---xx 40wattxmas2004-12-13d2t10.flac

4:21.28 46106300 --- -- ---xx 40wattxmas2004-12-13d2t11.flac

5:57.21 63024236 --- -- ---xx 40wattxmas2004-12-13d2t12.flac

5:03.68 53609180 --- -- ---xx 40wattxmas2004-12-13d3t01.flac

1:31.55 16181804 --- -- ---xx 40wattxmas2004-12-13d3t02.flac

4:08.45 43853084 --- -- ---xx 40wattxmas2004-12-13d3t03.flac

4:41.34 49648412 --- -- ---xx 40wattxmas2004-12-13d3t04.flac

4:07.14 43603772 --- -- ---xx 40wattxmas2004-12-13d3t05.flac

8:23.30 88799804 --- -- ---xx 40wattxmas2004-12-13d3t06.flac

6:05.19 64430732 --- -- ---xx 40wattxmas2004-12-13d3t07.flac

5:36.37 59357468 --- -- ---xx 40wattxmas2004-12-13d3t08.flac

4:15.65 45134924 --- -- ---xx 40wattxmas2004-12-13d3t09.flac

5:51.56 62048156 --- -- ---xx 40wattxmas2004-12-13d3t10.flac

5:52.63 62241020 --- -- ---xx 40wattxmas2004-12-13d3t11.flac

196:52.41 2083734816 B (totals for 36 files, 0.5284 o
verall compression ratio)
Show Checksums
ffp
40wattxmas2004-12-13d1t01.flac:96c86c07f455127811558bebb2848ee7
40wattxmas2004-12-13d1t02.flac:04aa0201cd58666f6d18a8a16636e461
40wattxmas2004-12-13d1t03.flac:be551296dfe97cd3665d9131ab397ccc
40wattxmas2004-12-13d1t04.flac:356cdb553404cda5fad7e5691e58f905
40wattxmas2004-12-13d1t05.flac:741b2fc00473f53fa6b951d685403603
40wattxmas2004-12-13d1t06.flac:eaf6c4cad25e1253c04e842602e305a4
40wattxmas2004-12-13d1t07.flac:67633ce670c8d44214c8e08323a8e01a
40wattxmas2004-12-13d1t08.flac:1a57f70be302e8cd37c15e3683c31608
40wattxmas2004-12-13d1t09.flac:b692679aea5471fe63782cdb6a934a2e
40wattxmas2004-12-13d1t10.flac:625869c78d35450ba5cf5870a19de440
40wattxmas2004-12-13d1t11.flac:3d61cb9ea4ea3fe024f6b4e587e6d393
40wattxmas2004-12-13d1t12.flac:9010b73a55f8e879150be6c18ef66032
40wattxmas2004-12-13d1t13.flac:e0e48ddb84f7f0153f8d6b85058d629a
40wattxmas2004-12-13d2t01.flac:c155c927e429a67c6e1e333db3dd768f
40wattxmas2004-12-13d2t02.flac:e9ef0a33b7aef392b46d6cddf444d2ee
40wattxmas2004-12-13d2t03.flac:e76260eeb64bc183b4c65aeeaea2a3c6
40wattxmas2004-12-13d2t04.flac:1e576942239671edaf67e11c2b0c3906
40wattxmas2004-12-13d2t05.flac:bf492c277b0911b17111b9b88ef8d6c6
40wattxmas2004-12-13d2t06.flac:afa506d3a77db7fd4942c9f0fe694ee1
40wattxmas2004-12-13d2t07.flac:2e8319b4a222f6b307e52633f333c967
40wattxmas2004-12-13d2t08.flac:16ab8080c0e119b6022cbb96ba4ba8d2
40wattxmas2004-12-13d2t09.flac:3a4e3f0afb514f2187de998d5ebf7eec
40wattxmas2004-12-13d2t10.flac:de3f7ef6fd947f0c871270edbf09279f
40wattxmas2004-12-13d2t11.flac:cc407f97ccc1719e3a931d8f169fd857
40wattxmas2004-12-13d2t12.flac:9f56688f4ac4f0740b3f4f4bdcf652d2
40wattxmas2004-12-13d3t01.flac:ccbb260549a83afc8e00faa957339fee
40wattxmas2004-12-13d3t02.flac:363ecbff00d6268139bd0eeb3d625365
40wattxmas2004-12-13d3t03.flac:a78cae8fdf1dde9cac143e34f1cb16cc
40wattxmas2004-12-13d3t04.flac:c95fb895a956528b62883dac1d85368d
40wattxmas2004-12-13d3t05.flac:806652a8952d1ba620b394718740655f
40wattxmas2004-12-13d3t06.flac:b077daae0a4e3ff309f50a4c566b8149
40wattxmas2004-12-13d3t07.flac:6b17d45a961be2c19351f25f16889afb
40wattxmas2004-12-13d3t08.flac:88b28e7fcdf24473be6b92529d247696
40wattxmas2004-12-13d3t09.flac:7d38fdb2bfadfc4208b6a5c1a341c379
40wattxmas2004-12-13d3t10.flac:3705bd7d6ddbcd14e28b4afd705bd47b
40wattxmas2004-12-13d3t11.flac:439de19601e306e6ba056fbb4b376e8f

Comments
Add Comment
Date User Comment
12/19/2004 Kyle pike 40 Watt Christmas Party featuring Patterson, Brad, Jason and Shonna