Browse Collections Artists Sources   Search Dates

Add Show    List Management    Help


Grateful Dead 06/21/80
West High Auditorium, Anchorage, AK
Comments Add Comment    Source Collectors    Add to Collection    Add to Want List    History
Source # 27448 Other Sources
Entered by Matt Vernon
Checksums ffp , flac-md5
Disc Counts 2 / 3
Media Size
Date Circulated
Date Added
12/18/2004
05/13/2005
Source Summary flac 16; Soundboard> Cassette Master> Sonic Solutions (20bit)> SBM2> Master CD> EAC> FLAC. Cassette Masters provided by Richard Hale, Transfer and patch by David Gans, FLAC and upload by Joe Samaritano 
  Archive
Source Information - Download Text | Download Zip
6/21/80 - Grateful Dead
West High Auditorium, Anchorage, AK

Lineage:
Soundboard->Cassette Master->Sonic Solutions (20bit)->
Sony SBM2->Master CD->EAC->FLAC

Patch Lineage:
Unknown Audience (speed corrected)
{Likely Eddie Claridge AKG 414}

Re-track, FLAC, and upload by Joe Samaritano
12/18/2004

Notes:
- Cassette Masters supplied by Richard Hale
- Transferred and patched by David Gans
- Aud patches: First few notes of Candyman; middle of Loser;
  first half of Big RxR Blues; half a minute or so of Space
- Per Richard Hale, this is the best circulating source

Set 1:
d1t01 - Sugaree
d1t02 - Minglewood
d1t03 - BK for President
d1t04 - Candyman
d1t05 - MAMU
d1t06 - Big River
d1t07 - Loser
d1t08 - Lazy Lightning
d1t09 - Supplication
d1t10 - Far From Me
d1t11 - Ramble on Rose
d1t12 - Feel Like a Stranger

Set 2:
d2t01 - Big RxR Blues
d2t02 - Samson & Delilah
d2t03 - Terrapin
d2t04 - PITB
d2t05 - Drums
d3t01 - Space
d3t02 - Truckin'
d3t03 - Stella Blue
d3t04 - Sugar Mag
d3t05 - E: OMSN
d3t06 - E: Brokedown Palace


SHNTOOL OUTPUT:
    length     expanded size   cdr  WAVE problems filename
    14:46.22      156342188    ---   --   -----   gd1980-06-21d1t01.wav
     7:21.15       77827724    ---   --   -----   gd1980-06-21d1t02.wav
     0:27.68        4922780    ---   --   -----   gd1980-06-21d1t03.wav
     7:06.27       75209948    ---   --   -----   gd1980-06-21d1t04.wav
     2:56.68       31206380    ---   --   -----   gd1980-06-21d1t05.wav
     6:06.27       64625948    ---   --   -----   gd1980-06-21d1t06.wav
     7:28.40       79121324    ---   --   -----   gd1980-06-21d1t07.wav
     3:39.39       38723372    ---   --   -----   gd1980-06-21d1t08.wav
     6:00.51       63623996    ---   --   -----   gd1980-06-21d1t09.wav
     4:16.45       45264284    ---   --   -----   gd1980-06-21d1t10.wav
     7:55.70       83954684    ---   --   -----   gd1980-06-21d1t11.wav
     8:37.68       91358780    ---   --   -----   gd1980-06-21d1t12.wav
     4:46.17       50490428    ---   --   -----   gd1980-06-21d2t01.wav
     7:58.08       84338060    ---   --   -----   gd1980-06-21d2t02.wav
    11:42.10      123856364    ---   --   -----   gd1980-06-21d2t03.wav
    13:59.27      148063148    ---   --   -----   gd1980-06-21d2t04.wav
     7:32.43       79833980    ---   --   -----   gd1980-06-21d2t05.wav
     4:40.32       49467308    ---   --   -----   gd1980-06-21d3t01.wav
     8:56.05       94562204    ---   --   -----   gd1980-06-21d3t02.wav
     9:27.15      100054124    ---   --   -----   gd1980-06-21d3t03.wav
     9:06.28       96380300    ---   --   -----   gd1980-06-21d3t04.wav
     4:41.50       49686044    ---   --   -----   gd1980-06-21d3t05.wav
     6:05.37       64473068    ---   --   -----   gd1980-06-21d3t06.wav
   165:39.62     1753386436 B                     (totals for 23 files)

FLAC FINGERPRINT:
gd1980-06-21d1t01.flac:8bf28a7f82cd4567aabaa6eb2f156629
gd1980-06-21d1t02.flac:ffa73bee5a300c5e37ea3ccfb9cc1df1
gd1980-06-21d1t03.flac:80bacaa8e938234843a3b51abb3ceeaa
gd1980-06-21d1t04.flac:cc3c7586ed4bcc9fcae28ce9fa57987d
gd1980-06-21d1t05.flac:6ed52ba64cec23c20be17b6007152bd4
gd1980-06-21d1t06.flac:0d97684649fd26b6fdc35afbcba2bdbc
gd1980-06-21d1t07.flac:7c6a115051309a185240da3c9e9fe3e8
gd1980-06-21d1t08.flac:592fe70bcb8828bd46c676c9c53e498c
gd1980-06-21d1t09.flac:80d62077bc7e3f8746d46d6eb55f4be5
gd1980-06-21d1t10.flac:6f358060327d441cf1aa082618248316
gd1980-06-21d1t11.flac:1cf80ee93ff4968ce991e04b20fed4c6
gd1980-06-21d1t12.flac:6d991ca28e898a06973ff0db429f6c9b
gd1980-06-21d2t01.flac:fca5d4356c2cc7686d470db99b61fac1
gd1980-06-21d2t02.flac:1eb7509242fe638d08c3d27f6b157c81
gd1980-06-21d2t03.flac:a852882cfc06bd65f562aac58a4e3348
gd1980-06-21d2t04.flac:28d409788ebb6b055ffb74a55a76021e
gd1980-06-21d2t05.flac:fa61c43b55ce0207baa56aac70929577
gd1980-06-21d3t01.flac:399450aba5dda73fe7379e26fec95714
gd1980-06-21d3t02.flac:8a5e8d2a8b0a1dfd24d90e53ae5585b3
gd1980-06-21d3t03.flac:2805a6994dba5f22e2b0f25484e3e0d2
gd1980-06-21d3t04.flac:eba4e45c50778ea8449f2ea907a94132
gd1980-06-21d3t05.flac:64b2b81ade992ae9f4a2ebfbe4af1172
gd1980-06-21d3t06.flac:fa65b85183c3a3866bd6938b71d8079b
Show Checksums
ffp
gd1980-06-21d1t01.flac:8bf28a7f82cd4567aabaa6eb2f156629
gd1980-06-21d1t02.flac:ffa73bee5a300c5e37ea3ccfb9cc1df1
gd1980-06-21d1t03.flac:80bacaa8e938234843a3b51abb3ceeaa
gd1980-06-21d1t04.flac:cc3c7586ed4bcc9fcae28ce9fa57987d
gd1980-06-21d1t05.flac:6ed52ba64cec23c20be17b6007152bd4
gd1980-06-21d1t06.flac:0d97684649fd26b6fdc35afbcba2bdbc
gd1980-06-21d1t07.flac:7c6a115051309a185240da3c9e9fe3e8
gd1980-06-21d1t08.flac:592fe70bcb8828bd46c676c9c53e498c
gd1980-06-21d1t09.flac:80d62077bc7e3f8746d46d6eb55f4be5
gd1980-06-21d1t10.flac:6f358060327d441cf1aa082618248316
gd1980-06-21d1t11.flac:1cf80ee93ff4968ce991e04b20fed4c6
gd1980-06-21d1t12.flac:6d991ca28e898a06973ff0db429f6c9b
gd1980-06-21d2t01.flac:fca5d4356c2cc7686d470db99b61fac1
gd1980-06-21d2t02.flac:1eb7509242fe638d08c3d27f6b157c81
gd1980-06-21d2t03.flac:a852882cfc06bd65f562aac58a4e3348
gd1980-06-21d2t04.flac:28d409788ebb6b055ffb74a55a76021e
gd1980-06-21d2t05.flac:fa61c43b55ce0207baa56aac70929577
gd1980-06-21d3t01.flac:399450aba5dda73fe7379e26fec95714
gd1980-06-21d3t02.flac:8a5e8d2a8b0a1dfd24d90e53ae5585b3
gd1980-06-21d3t03.flac:2805a6994dba5f22e2b0f25484e3e0d2
gd1980-06-21d3t04.flac:eba4e45c50778ea8449f2ea907a94132
gd1980-06-21d3t05.flac:64b2b81ade992ae9f4a2ebfbe4af1172
gd1980-06-21d3t06.flac:fa65b85183c3a3866bd6938b71d8079b
flac-md5
0a494ac5d966120461dee0524812a864 *gd1980-06-21d1t01.flac
978a1d57476830b1f1677abe60679f66 *gd1980-06-21d1t02.flac
392252bcad57616c009fb8b5ffea7c62 *gd1980-06-21d1t03.flac
2e25728b0f9eae3f7306a103fe4aa18c *gd1980-06-21d1t04.flac
da68ec4341ef7cfd8707afc4fe233815 *gd1980-06-21d1t05.flac
5801aa61036bd0f1233ade47557111de *gd1980-06-21d1t06.flac
016724a7c60b922f23834331812b6862 *gd1980-06-21d1t07.flac
2338abd4e8afce1394c09d9d91f17a2b *gd1980-06-21d1t08.flac
6c567c5b98ae9887b995a0eee9540812 *gd1980-06-21d1t09.flac
4543dd0517b71619375ba8a57653ee60 *gd1980-06-21d1t10.flac
c73ef039d6fd951cac4713786461a817 *gd1980-06-21d1t11.flac
ed4bdea4c35116df89e65074dc0f56e9 *gd1980-06-21d1t12.flac
500c77d75f385a2c744f8e71129ddfdf *gd1980-06-21d2t01.flac
3550294b5bce2852d0bb839958d7c9ca *gd1980-06-21d2t02.flac
f7929afd3db6e7fa313d2168d9ac05d0 *gd1980-06-21d2t03.flac
25c6aef64a394405e6f24dc9813fbe3d *gd1980-06-21d2t04.flac
6eb81114bb3cfd339bcef9788922b7b1 *gd1980-06-21d2t05.flac
34e9f6d1e99527f9b227822cf6c4572b *gd1980-06-21d3t01.flac
b9b26cb1e80e8d80d99b14230af2b40a *gd1980-06-21d3t02.flac
495ba47bb6042761f9e8be64ec1ebdbd *gd1980-06-21d3t03.flac
e7f3c6ddd4575d9c3233f0fbd6fbb167 *gd1980-06-21d3t04.flac
403e33e40b8935e4c9966501339f966b *gd1980-06-21d3t05.flac
ed4dea68b6c414502964e2a0046c15e6 *gd1980-06-21d3t06.flac

Comments
Add Comment
Other Sources (comments)
SBD -> ?? -> DAT(2) -> CDR;... (2) Sources:Primary... (5) Source: Recorded by Eddie... (0) Bertha Remaster of (1) flac16; SBD/AUD... (0) flac24; DVD-A 24/44... (0) flac16; DTS-Audio-CD... (0) flac16; Repatched... (1) flac16; Recorded by... (0) flac16; Matrix by... (0) flac16;Recording... (0)
Date User Comment