Browse Collections Artists Sources   Search Dates

Add Show    List Management    Help


KVHW 12/02/99
Stone Coast Brewing Company, Portland, ME
Comments Add Comment    Source Collectors    Add to Collection    Add to Want List    History
Source # 27548 Other Sources
Entered by
Checksums shn.all
Disc Counts 2 / 3
Media Size
Date Circulated
Date Added
08/08/04
12/29/2004
Source Summary Neumann KM100/AK40 -> Beyer MV100 -> Dat (Tascam DA-P1) -> CD -> EAC -> SHN 
  Archive
Source Information - Download Text | Download Zip
12/2/99 - KVHW
Stone Coast Brewing Company
Portland, ME

Recording Info:
Neumann KM100/AK40 -> Beyer MV100 -> Dat (Tascam DA-P1) ->
CD -> EAC -> SHN (3 Discs Audio / 2 Discs SHN)

Re-tracked and SHN'd By Charlie Miller
[email protected]
8/8/04

Set 1:
d1t01 - Footprints
d1t02 - Kissin' The Boo Boo
d1t03 - Five B4 Funk
d1t04 - Teeny Weeny Bit
d1t05 - Sea Blues
d1t06 - City Of Tiny Lights

Set 2:
d2t01 - From The Bass Up ->
d2t02 - Hillbillies On PCP
d2t03 - Nine -> Ring Around The Moon -> Nine
d3t01 - A New Africa
d3t02 - Spring Water
d3t03 - Papago


SHNTOOL OUTPUT:
    length     expanded size   cdr  WAVE problems filename
    13:33.66      143568476    ---   --   -----   kvhw1999-12-02d1t01.wav
    13:40.41      144744476    ---   --   -----   kvhw1999-12-02d1t02.wav
    13:23.13      141679820    ---   --   -----   kvhw1999-12-02d1t03.wav
    10:20.60      109509164    ---   --   -----   kvhw1999-12-02d1t04.wav
    12:25.14      131450972    ---   --   -----   kvhw1999-12-02d1t05.wav
     7:22.49       78084092    ---   --   -----   kvhw1999-12-02d1t06.wav
    22:19.23      236253740    ---   --   -----   kvhw1999-12-02d2t01.wav
    10:29.00      110955644    ---   --   -----   kvhw1999-12-02d2t02.wav
    10:56.43      115819580    ---   --   -----   kvhw1999-12-02d2t03.wav
    10:54.65      115518524    ---   --   -----   kvhw1999-12-02d3t01.wav
    18:30.32      195879308    ---   --   -----   kvhw1999-12-02d3t02.wav
    16:01.13      169551020    ---   --   -----   kvhw1999-12-02d3t03.wav
   159:57.44     1693014816 B                     (totals for 12 files)
Show Checksums
shn.all
09fcefc1568308d3b3f80c73b82b2c2d *kvhw1999-12-02d1t03.shn
5ae0f0e5cf824be12b61d57993cf8978 *kvhw1999-12-02d1t02.shn
37c488bab300b659e1658743ccbe3446 *kvhw1999-12-02d1t01.shn
ea17c84936958d5766872b9ce273c4ed *kvhw1999-12-02d1t04.shn
5130a9f9e5d1ca9e0e275d96384fbe3f *kvhw1999-12-02d1t05.shn
8c44625a627376a59a65e62ab8b2e6ac *kvhw1999-12-02d1t06.shn
26c3ceb66d174007ca10edb8f9edf663 *kvhw1999-12-02d2t01.shn
223611d9b12087c273db45c40ab2716d *kvhw1999-12-02d2t02.shn
eb162ec2049fb19bf8f00c7cb223dbef *kvhw1999-12-02d2t03.shn
3570e9588abd26c98e0531174523f70b *kvhw1999-12-02d3t01.shn
e33a306ba577385ee0e23dac2a19b1ed *kvhw1999-12-02d3t02.shn
8f24c4659f57404e0d666ac69d9d8af1 *kvhw1999-12-02d3t03.shn

Comments
Add Comment
Date User Comment