Browse Collections Artists Sources   Search Dates

Add Show    List Management    Help


Grateful Dead 09/17/70
Fillmore East, New York, NY
Comments Add Comment    Source Collectors    Add to Collection    Add to Want List    History
Source # 27591 Other Sources
Entered by dr.unclear
Checksums shn-md5 , st5
Disc Counts 1 / 2
Media Size
Date Circulated
Date Added
1/2/05
01/04/2005
Source Summary remaster of shnid 16090, by SIRMick 
  Archive
Source Information - Download Text | Download Zip
Grateful Dead, with New Riders of the Purple Sage
Fillmore East, New York, NY
September 17, 1970

source: see shnid16090

disc 1
gd acoustic set

01 Tuning
02 Truckin?
03 Monkey and the Engineer
04 Dark Hollow
05 Friend of the Devil
06 Ripple
07 Tuning
08 Brokedown Palace
09 Box of Rain
10 Rosalie McFall
11 Cold Jordan >
12 Swing Low Sweet Chariot//

nrps set

13 Six Days on the Road
14 I Don?t Know You
15 Superman
16 Henry
17 Portland Woman
18 Cecilia

disc 2
gd electric set

01 Sugar Magnolia
02 Dark Star >
03 Saint Stephen >
04 Drums >
05 Good Lovin' >
06 Drums >
07 Good Lovin?

notes:

this is a remaster of shnid 16090

-  hiss and nouse reduction has been applied throughout
-  a considerable number of small droputs, pops and clicks have been fixed
-  numerous volume adjustments have been made
-  I found that from St Stephen through to the end there were a number of sections where the    channels appear to have been switched, these have now been corrected.
   d2t01 20 seconds starting from 2:50, 44 seconds from 4:33
   d2t05 first 9 seconds
   d2t06 from 2:07 to the end
   d2t07 first 3:43, 1:33 from 5:21
-  the tape wobble at 4:26 on d2t01 has been partially repaired by patching in 2,61 seconds from    the following repeated sequence
-  final mastering with iZotope Ozone

SIRMick
January 2nd, 2005


    length     expanded size   cdr  WAVE problems filename
     3:59.56       42291356    ---   --   ---xx   gd70-09-17d1t01.shn
     6:04.08       64228460    ---   --   ---xx   gd70-09-17d1t02.shn
     1:56.64       20612972    ---   --   ---xx   gd70-09-17d1t03.shn
     3:25.13       36192620    ---   --   ---xx   gd70-09-17d1t04.shn
     3:44.04       39523052    ---   --   ---xx   gd70-09-17d1t05.shn
     4:35.38       48599420    ---   --   ---xx   gd70-09-17d1t06.shn
     1:08.41       12091676    ---   --   ---xx   gd70-09-17d1t07.shn
     4:57.08       52409660    ---   --   ---xx   gd70-09-17d1t08.shn
     5:43.54       60632252    ---   --   ---xx   gd70-09-17d1t09.shn
     3:06.37       32897468    ---   --   ---xx   gd70-09-17d1t10.shn
     2:24.26       25462796    ---   --   ---xx   gd70-09-17d1t11.shn
     0:24.57        4367708    ---   --   ---xx   gd70-09-17d1t12.shn
     2:57.51       31342796    ---   --   ---xx   gd70-09-17d1t13.shn
     3:55.43       41555180    ---   --   ---xx   gd70-09-17d1t14.shn
     3:45.64       39840572    ---   --   ---xx   gd70-09-17d1t15.shn
     3:42.31       39233756    ---   --   ---xx   gd70-09-17d1t16.shn
     5:18.19       56139932    ---   --   ---xx   gd70-09-17d1t17.shn
     4:15.48       45094940    ---   --   ---xx   gd70-09-17d1t18.shn
     4:49.48       51092540    ---   --   ---xx   gd70-09-17d2t01.shn
    26:15.31      277902956    ---   --   ---xx   gd70-09-17d2t02.shn
     6:19.06       66869756    ---   --   ---xx   gd70-09-17d2t03.shn
     0:52.30        9243404    ---   --   ---xx   gd70-09-17d2t04.shn
     1:55.14       20318972    ---   --   ---xx   gd70-09-17d2t05.shn
     3:41.45       39090284    ---   --   ---xx   gd70-09-17d2t06.shn
     8:27.30       89505404    ---   --   ---xx   gd70-09-17d2t07.shn
   117:46.41     1246539932 B                     (totals for 25 files, 0.6421 overall compression ratio)
Show Checksums
shn-md5
a38ecbb4d273d9f10dacb8c33ad821de *gd70-09-17d1t01.shn
c6a5381d83c0897c465b1666927b15c5 *gd70-09-17d1t02.shn
1cd4df68d7b070a16931187613eec1de *gd70-09-17d1t03.shn
c267f84226fe7437b72a468a02d62184 *gd70-09-17d1t04.shn
a2c5f14408b73c53ab5c7be9ffb6de4b *gd70-09-17d1t05.shn
530871e4643195443e8d34c46db327b3 *gd70-09-17d1t06.shn
e3cd8360917e5b1eb687be0bf987b530 *gd70-09-17d1t07.shn
b07ee4cc55899550a297839cb03d4152 *gd70-09-17d1t08.shn
5faa319c7d3b0e2ed01e61b5b06fc4fc *gd70-09-17d1t09.shn
782c7fa8ca783e9f9c30e30b3a8ca2bd *gd70-09-17d1t10.shn
a08db44189488a37f4ac0342c581fcf1 *gd70-09-17d1t11.shn
b722075dd0ff452fc8e2e0a5475736b5 *gd70-09-17d1t12.shn
28a3396fb8bb689d0dde89f0cbd59cc2 *gd70-09-17d1t13.shn
28e74bfd612c64a515efbd7e1cedee26 *gd70-09-17d1t14.shn
28d70b9725a89f1b1d49480f90c6332f *gd70-09-17d1t15.shn
b1a6e5905ac2de324dc5b2652b22800b *gd70-09-17d1t16.shn
11de6afff8b9f21fa7610d10cb61ed88 *gd70-09-17d1t17.shn
74d13fd0fe0ba900f7bcc49123bd042d *gd70-09-17d1t18.shn
7385689411b419467d608aaa4d9cd68a *gd70-09-17d2t01.shn
46ab03be435b53accae65ce082e5c717 *gd70-09-17d2t02.shn
7923078adbfbec81b5bfafcf5f7d9c63 *gd70-09-17d2t03.shn
24c3743b5abd9186a7f04352169b92d8 *gd70-09-17d2t04.shn
04271af4c5a87307773a6efd7f648d0b *gd70-09-17d2t05.shn
b4e6549e839d8722653700e62eae3b60 *gd70-09-17d2t06.shn
f8a2b383f131e082f7706a54e0bdb508 *gd70-09-17d2t07.shn
st5
dacabba3340bd9725cced6ad041fc020 [shntool] gd70-09-17d1t01.shn
0f21fc32aaa7b4e40463d0641ee77caa [shntool] gd70-09-17d1t02.shn
d7c89f1076cd4ac644656bb483b581c5 [shntool] gd70-09-17d1t03.shn
5f1f74371a96a21627c78a6b479e9001 [shntool] gd70-09-17d1t04.shn
494a795dd3195e90f715790394749144 [shntool] gd70-09-17d1t05.shn
f07296f6c7ef897ce3e70c7922a7605a [shntool] gd70-09-17d1t06.shn
b9cbcc256c663cf9424aa31ce96e4989 [shntool] gd70-09-17d1t07.shn
5d27cda8dfe6f372a300f71300274fe1 [shntool] gd70-09-17d1t08.shn
fd5ad2b7d75427c30be4a37a22017c09 [shntool] gd70-09-17d1t09.shn
74888698049d029e7b967a3ec3abb353 [shntool] gd70-09-17d1t10.shn
e918b2cdc7752d8f920c9ef419b4daaf [shntool] gd70-09-17d1t11.shn
626325549c36f2c582dea1dc1c955be8 [shntool] gd70-09-17d1t12.shn
c7097931981afe1b1bd7652eccb4f2f9 [shntool] gd70-09-17d1t13.shn
6496b412cb09a8d8710afb3627bdd0c8 [shntool] gd70-09-17d1t14.shn
d14ddaad248fe7db973690932e55ea06 [shntool] gd70-09-17d1t15.shn
fe856a0f62b84b2015d1af1b59129a53 [shntool] gd70-09-17d1t16.shn
50e0aa684f0ad97b1281ebca8952d79c [shntool] gd70-09-17d1t17.shn
3a7f469b7220d9d9ce1bdc6ec74643a4 [shntool] gd70-09-17d1t18.shn
4a3ae448d7c2a1ae6759fa462249c0da [shntool] gd70-09-17d2t01.shn
1610f6b5593f1c020336f564111ec536 [shntool] gd70-09-17d2t02.shn
eee2d02e00dfc6b84d31a249f10e4199 [shntool] gd70-09-17d2t03.shn
756c6ae3de68cb029c64e60db30a7ab3 [shntool] gd70-09-17d2t04.shn
95016817e33238ac0f5cc087684f93f9 [shntool] gd70-09-17d2t05.shn
09c66cd9c2b12a63a7d7109422b7dc08 [shntool] gd70-09-17d2t06.shn
a93c1fc68473176787b87cf1d46ab4d4 [shntool] gd70-09-17d2t07.shn

Comments
Add Comment
Other Sources (comments)
MAC> Reel> Cassette> DAT>... (1) mixed sources: MAC> R> C>... (0) AKG190E>Uher 400L>Master... (0)
Date User Comment
01/03/2005 Lewis/Klitschko So? Are the experts pleased? How does this compare to the prior source?
01/04/2005 SIRMick I'd be interested to hear all opinions
01/04/2005 Gary d1t07 is tuning all of the following tracks need to be increased by one (i.e., Brokedown is d1t08). Nice job on the NR once again.
01/04/2005 Diana Txt here now updated, thanks Gary.
01/04/2005 SIRMick Thanx Gary. I'll update my text file
01/12/2005 stardancer Personally I prefer the original. It sounds more "authentic" or how to explain it. And, on my stereo at least, the remaster lacked a lot of bass. But hey, I'm by no means an expert! And, I didn't listen to every song on the remastered version, only the first few. Great show anyhow!