Browse Collections Artists Sources   Search Dates

Add Show    List Management    Help


Grateful Dead 04/26/83
The Spectrum, Philadelphia, PA
Comments Add Comment    Source Collectors    Add to Collection    Add to Want List    History
Source # 28161 Other Sources
Entered by dr.unclear
Checksums shn-md5 , st5
Disc Counts 1 / 2
Media Size
Date Circulated
Date Added
02/08/05
02/14/2005
Source Summary set2; Sennheiser shotguns > Sony D-5 onto Maxell XLIIS-90, No dolby used; recorded by David Hanscom, center, about 2/3rds back on floor (FOB); Transfer: MC > CDR: NAK BX-300 > Philips CDR-820 standalone recorder, as long, multi-song files; EAC> CDWAV> shn by Bzl 
  Archive
Source Information - Download Text | Download Zip
Grateful Dead
Spectrum, Philadelphia
April 26, 1983

MC -> CDR

recorded by David Hanscom, center, about 2/3rds back on floor (FOB).  Sennheiser shotguns -> Sony D-5 onto MaxellXLIIS-90. No dolby used.

Transfer:  NAK BX-300 -> Philips CDR-820 standalone recorder, as long, multi-song  files.  

Track-splitting, burning, etc.:
EAC to extract to hard drive, CD Wave for splitting resulting .wav files, mkw to encode to shn.  Transfer by Bzl.

Unfortunately, only the second set cassette seems to have survived.  This is a great recording: Enjoy!

Disc One:
1. Help on the Way -> Slipnot ->
2. Franklin's Tower
3. Women Are Smarter  ->
4. Drums ->
5. Space ->

Disc Two:
6. ...Space ->
7. Truckin' ->
8. Morning Dew ->
9. Throwing Stones ->
10. Not Fade Away
              

note
- flip in space
      
Only recognized flaw:  Levels are being adjusted during first 10 seconds of Help On The Way.

    length     expanded size   cdr  WAVE problems filename
     8:32.07       90333308    ---   --   ---xx   gd83-04-26d2t01HelpSlip.shn
     9:38.06      101973356    ---   --   ---xx   gd83-04-26d2t02Franklins.shn
     6:49.24       72204092    ---   --   ---xx   gd83-04-26d2t03Women.shn
    11:09.39      118103372    ---   --   ---xx   gd83-04-26d2t04Drums.shn
     3:33.55       37702604    ---   --   ---xx   gd83-04-26d2t05SpaceA.shn
     7:02.43       74541980    ---   --   ---xx   gd83-04-26d3t01SpaceB.shn
     8:09.33       86337260    ---   --   ---xx   gd83-04-26d3t02Truckin.shn
    10:31.12      111336668    ---   --   ---xx   gd83-04-26d3t03Dew.shn
     9:33.61      101220716    ---   --   ---xx   gd83-04-26d3t04Ashes.shn
     8:36.04       91031852    ---   --   ---xx   gd83-04-26d3t05NFA.shn
    83:35.59      884785208 B                     (totals for 10 files, 0.6807 overall compression ratio)

Show Checksums
shn-md5
a099fb3aa51b92ffb2cd8177a3a0d706 *gd83-04-26d3t03Dew.shn
0af5f22089b4adf9e79ea6958056f5ba *gd83-04-26d3t04Ashes.shn
86d501d4bbb1b114c470a4ffd02965db *gd83-04-26d3t05NFA.shn
15545d48431d7dd6d3bd999a8e9fe570 *gd83-04-26d2t01HelpSlip.shn
b915a85d7684afa41a5e11acbca59c96 *gd83-04-26d2t02Franklins.shn
e8ee2c01057b7afb5c8e3684506c916f *gd83-04-26d2t03Women.shn
4e02172ee5cdf2c7c3189cb70aa99992 *gd83-04-26d2t04Drums.shn
aa82cd4ed0f7c12b602f138de6118102 *gd83-04-26d2t05SpaceA.shn
5c52f0ca104c974d67cee4e03ea4e4de *gd83-04-26d3t01SpaceB.shn
1b9babc2b47f4093949d264d2f1d93f5 *gd83-04-26d3t02Truckin.shn
st5
11e0527dd143a400843b557f91e82022 [shntool] gd83-04-26d2t01HelpSlip.shn
1cec349a684f0118b2fcf658fe3a679f [shntool] gd83-04-26d2t02Franklins.shn
ed7ad6ea4c783c754b1a64b79855d86c [shntool] gd83-04-26d2t03Women.shn
574bf1c82ba942c0891c774b2d093a35 [shntool] gd83-04-26d2t04Drums.shn
1630a508ba48f4f4f58d1042fabe1e24 [shntool] gd83-04-26d2t05SpaceA.shn
40dacbef8a39022104b050ec4ba8e53f [shntool] gd83-04-26d3t01SpaceB.shn
162664b0cbfe63448b4b355cea797855 [shntool] gd83-04-26d3t02Truckin.shn
1126c10adfb73d30e4bfe8b063c0db00 [shntool] gd83-04-26d3t03Dew.shn
d2964aca45ccd0be3d2d92db6e86d77e [shntool] gd83-04-26d3t04Ashes.shn
5cd2fbf7caa3e8111670697fe76fd499 [shntool] gd83-04-26d3t05NFA.shn

Comments
Add Comment
Other Sources (comments)
SBDMC> Cass> DAT> CDR> EAC>... (1) flac16; Unknown mics... (0) flac16; Seamless fix... (1) flac16; Recording... (0) flac16; Source: 2... (0) flac16; 2 Source... (0) flac16/48kHz; Master... (0) flac16; MAC; (FOB)... (0) flac24; MAC; (FOB)... (0) flac24; Master... (0) flac16; Master... (0) flac16/44.1 Master... (0) flac24/48 Master... (0)
Date User Comment