Browse Collections Artists Sources   Search Dates

Add Show    List Management    Help


Grateful Dead 04/26/83
The Spectrum, Philadelphia, PA
Comments Add Comment    Source Collectors    Add to Collection    Add to Want List    History
Source # 28360 Other Sources
Entered by Matt Vernon
Checksums orig-ffp , flac-md5 , ffp
Disc Counts 2 / 3
Media Size
Date Circulated
Date Added
02/19/05
02/25/2005
Source Summary flac16; Unknown mics > MAC > C > C > Hardrive via souncard > Cool Edit to split tracks > flac; transfer by David Dillon 
  Archive
Source Information - Download Text | Download Zip
Grateful Dead
The Spectrum
Philadelphia, PA
April 26, 1983

Source: Unknown mics > MC > C > C > Hardrive via souncard > Cool Edit to split tracks > flac

Disc One:  (Set One)
1.  Shakedown Street
2.  Minglewood Blues
3.  They Love Each Other
4.  Me And My Uncle ->
5.  Mexicali Blues
6.  Maybe You Know  
7.  West L.A. Fadeaway
8.  Brother Esau
9.  It Must Have Been The Roses
10. Let It Grow

Disc Two: (Set Two)
1.  Help On The Way ->
2.  Slipknot! ->
3.  Franklin's Tower ->
4.  Women Are Smarter ->
5.  Drums ->
6.  Space ->

Disc Three:  (Set Two Cont'd)
1.  Space ->
2.  Truckin' ->
3.  Morning Dew
4.  Throwing Stones ->
5.  Not Fade Away
Encore:  
6. U.s. Blues

Comments:  
- Don't let this lineage scare you...sounds great.
- Abrupt stop after d1t6 is on master (tape flip)
- There was a cut/blank space in Drums that was removed with Cool Edit
- Abrupt stop at end of d3t5 is on master


give thanks to David Dillon for transfering his tapes to disk and preparing this seed!!!

    length     expanded size   cdr  WAVE problems filename
    13:45.26      145590632    -b-   --   ---xx   GD4-26-83d1t01shakedown.flac
     8:12.48       86902508    -b-   --   ---xx   GD4-26-83d1t02minglewood.flac
     8:30.54       90090384    -b-   --   ---xx   GD4-26-83d1t03tleo.flac
     3:20.51       35399020    -b-   --   ---xx   GD4-26-83d1t04mamu.flac
     5:30.03       58218896    -b-   --   ---xx   GD4-26-83d1t05mexicali.flac
     4:51.58       51469872    -b-   --   ---xx   GD4-26-83d1t06maybeyouknow.flac
     7:40.05       81156748    -b-   --   ---xx   GD4-26-83d1t07westla.flac
     5:30.52       58334172    -b-   --   ---xx   GD4-26-83d1t08Esau.flac
     5:24.55       57283104    -b-   --   ---xx   GD4-26-83d1t09imhbtr.flac
    12:20.42      130634688    -b-   --   ---xx   GD4-26-83d1t10letitgrow.flac
     3:36.24       38159904    -b-   --   ---xx   GD4-26-83d2t1help.flac
     4:48.23       50858416    -b-   --   ---xx   GD4-26-83d2t2slip.flac
     9:28.30      100265152    -b-   --   ---xx   GD4-26-83d2t3franklins.flac
     6:48.24       72028092    -b-   --   ---xx   GD4-26-83d2t4womensmarter.flac
     7:03.30       74688336    -b-   --   ---xx   GD4-26-83d2t5drums.flac
     5:30.21       58261704    -b-   --   ---xx   GD4-26-83d2t6space.flac
     5:19.64       56421196    -b-   --   ---xx   GD4-26-83d3t1space.flac
     7:25.05       78509620    -b-   --   ---xx   GD4-26-83d3t2truckin.flac
    10:36.31      112262492    -b-   --   ---xx   GD4-26-83d3t3dew.flac
     9:09.48       96956368    -b-   --   ---xx   GD4-26-83d3t4throwinstones.flac
     7:56.39       84058064    -b-   --   ---xx   GD4-26-83d3t5nfa.flac
     4:58.63       52716328    -b-   --   ---xx   GD4-26-83d3t6eUSBlues.flac
   157:48.47     1670265696 B                     (totals for 22 files, 0.6338 overall compression ratio)

Show Checksums
orig-ffp
GD4-26-83d1t5mexicali.flac:a116bbd037fe8a0756acc3df271533e9
GD4-26-83d1t6maybeyouknow.flac:88ef2f2abdf54f954f3b60a3cdff8b32
GD4-26-83d1t7westla.flac:4a46100d46ef49da312d6f86926dfada
GD4-26-83d1t8Esau.flac:4b9da571e1d9e0bf7f1b171ed026b86d
GD4-26-83d1t9imhbtr.flac:c6062b12ae8064fbc0075033ac4d9fb4
GD4-26-83d1t10letitgrow.flac:e9beb4953e2fd494c2300203ce354eb0
GD4-26-83d2t1help.flac:578d98d844713bac1af0a7343631c59e
GD4-26-83d2t2slip.flac:77f4eb33a2d020a28a8d42dd503b2940
GD4-26-83d2t3franklins.flac:b081905b8eaf9e25b973080d531dc92a
GD4-26-83d2t4womensmarter.flac:11e7c58bdd659405f8d2dcae04857bb4
GD4-26-83d2t5drums.flac:e18ca56c1e0e042883777c9953132c9e
GD4-26-83d2t6space.flac:a3dd2a4f3604691555ef8cdb5505fe26
GD4-26-83d3t1space.flac:bfc6e52e6ef33a26189a1563c71ab3e1
GD4-26-83d3t2truckin.flac:8627cbee9444c87a60a560ba0d51dff3
GD4-26-83d3t3dew.flac:5476d5b045345a6f4179759c0ee109b6
GD4-26-83d3t4throwinstones.flac:d30f08a2a35b955da136b0cde1803672
GD4-26-83d3t5nfa.flac:2b337faba646ccbd556264e2750f3a0a
GD4-26-83d3t6eUSBlues.flac:ebd175284964310d0ef45c5f2d80f26c
GD4-26-83d1t1shakedown.flac:a36daa21bd0de4076bf1a1ba2f337f4f
GD4-26-83d1t2minglewood.flac:e4b39d6697acdd757e7ef907fc77fe53
GD4-26-83d1t3tleo.flac:b25958daa1b7c0cb867910e756605d63
GD4-26-83d1t4mamu.flac:fcb4e58ceea4f1d4130c41bb759d4038
flac-md5
0f0ee0e7c5f6faae1c9ec0b49031fc52 *GD4-26-83d1t10letitgrow.flac
71dbef1755fc5c9f498cf968999b8f98 *GD4-26-83d1t01shakedown.flac
cdfc2e345e82d9791e57faaff61bd45b *GD4-26-83d1t02minglewood.flac
c0d44300da3fcc70fce8d8fa04b669f7 *GD4-26-83d1t03tleo.flac
3037a2ea9f0708a1a2ecaa02bd469f87 *GD4-26-83d1t04mamu.flac
81f5769cce44f4ae6872609f70e1c82c *GD4-26-83d1t06maybeyouknow.flac
1db985203d7b62fb033b9d869e2cc73a *GD4-26-83d1t07westla.flac
70236605f34c64760b2087df1c4234ee *GD4-26-83d1t08Esau.flac
7a8c6e2e230b5552036e5e173a8477b3 *GD4-26-83d1t09imhbtr.flac
13147286e09adc8ba5b4df8ea4b60460 *GD4-26-83d2t1help.flac
7d28cb80a6326799b3029d70296dc795 *GD4-26-83d2t2slip.flac
ea4e1b0595b804c1ee0e24388441b43e *GD4-26-83d2t3franklins.flac
46a0ba560685532238e9799752668c73 *GD4-26-83d2t4womensmarter.flac
7b0db4ea86ee06b6c931dec57ab105a4 *GD4-26-83d2t5drums.flac
fc7b7b036e3650e8bda8c12ee7bc0289 *GD4-26-83d2t6space.flac
03a6a5241807924a246b27802387ac6f *GD4-26-83d3t1space.flac
186d61c6709fd68fb4f6323f36c2036b *GD4-26-83d3t2truckin.flac
0751aeb7f637745e992bc9afa02887b2 *GD4-26-83d3t3dew.flac
89bbebbb6e4a13b1a73600b1be863873 *GD4-26-83d3t4throwinstones.flac
c974350864ffa5e6e88e84759fcdb7d5 *GD4-26-83d3t5nfa.flac
c66793da812fa7a704863056eec13883 *GD4-26-83d3t6eUSBlues.flac
0d04a904cd867e4341328ffec45a23a4 *GD4-26-83d1t05mexicali.flac
ffp
GD4-26-83d1t01shakedown.flac:a36daa21bd0de4076bf1a1ba2f337f4f
GD4-26-83d1t02minglewood.flac:e4b39d6697acdd757e7ef907fc77fe53
GD4-26-83d1t03tleo.flac:b25958daa1b7c0cb867910e756605d63
GD4-26-83d1t04mamu.flac:fcb4e58ceea4f1d4130c41bb759d4038
GD4-26-83d1t05mexicali.flac:a116bbd037fe8a0756acc3df271533e9
GD4-26-83d1t06maybeyouknow.flac:88ef2f2abdf54f954f3b60a3cdff8b32
GD4-26-83d1t07westla.flac:4a46100d46ef49da312d6f86926dfada
GD4-26-83d1t08Esau.flac:4b9da571e1d9e0bf7f1b171ed026b86d
GD4-26-83d1t09imhbtr.flac:c6062b12ae8064fbc0075033ac4d9fb4
GD4-26-83d1t10letitgrow.flac:e9beb4953e2fd494c2300203ce354eb0
GD4-26-83d2t1help.flac:578d98d844713bac1af0a7343631c59e
GD4-26-83d2t2slip.flac:77f4eb33a2d020a28a8d42dd503b2940
GD4-26-83d2t3franklins.flac:b081905b8eaf9e25b973080d531dc92a
GD4-26-83d2t4womensmarter.flac:11e7c58bdd659405f8d2dcae04857bb4
GD4-26-83d2t5drums.flac:e18ca56c1e0e042883777c9953132c9e
GD4-26-83d2t6space.flac:a3dd2a4f3604691555ef8cdb5505fe26
GD4-26-83d3t1space.flac:bfc6e52e6ef33a26189a1563c71ab3e1
GD4-26-83d3t2truckin.flac:8627cbee9444c87a60a560ba0d51dff3
GD4-26-83d3t3dew.flac:5476d5b045345a6f4179759c0ee109b6
GD4-26-83d3t4throwinstones.flac:d30f08a2a35b955da136b0cde1803672
GD4-26-83d3t5nfa.flac:2b337faba646ccbd556264e2750f3a0a
GD4-26-83d3t6eUSBlues.flac:ebd175284964310d0ef45c5f2d80f26c

Comments
Add Comment
Other Sources (comments)
SBDMC> Cass> DAT> CDR> EAC>... (1) set2; Sennheiser shotguns >... (0) flac16; Seamless fix... (1) flac16; Recording... (0) flac16; Source: 2... (0) flac16; 2 Source... (0) flac16/48kHz; Master... (0) flac16; MAC; (FOB)... (0) flac24; MAC; (FOB)... (0) flac24; Master... (0) flac16; Master... (0) flac16/44.1 Master... (0) flac24/48 Master... (0)
Date User Comment