Browse Collections Artists Sources   Search Dates

Add Show    List Management    Help


Phish 09/27/95
Cal Expo Amphitheatre, Sacramento, CA
Comments Add Comment    Source Collectors    Add to Collection    Add to Want List    History
Source # 28697 Other Sources
Entered by Ben Mohr
Checksums d1 , d2
Disc Counts 1 / 2
Media Size
Date Circulated
Date Added
<03/18/05
03/18/2005
Source Summary Schoeps mk4; Tascam DA-20mkII > Philips CDR-870 > CDR > EAC > CDWav > Soundforge 4.5 > mkwACT > SHN 
Source Information - Download Text | Download Zip
Phish
09-27-95
Cal Expo Amphitheater - Sacramento, CA
--------------------------------------------------------------------------------
----------------

Source:         [DAUD(Possibly FOB); Clone]
                Schoeps MK4 -> ?

Conversion:     Tascam DA-20 MkII-> Coax-> Philips CDR-870 (Standalone)->
                WAV -> EAC (Extracted file as one track) -> CD Wave Editor
-> Soundforge 4.5 -> mkwACT (shn)
                **DAE was used**
**When I can afford a good soundcard, DAE will be upgraded
=)**

Minor Edits: Fades (in/out at beginning/end of sets, between d2t08 and d2t09
(crowd noise prior to encore))
----------------
Transferred by Misunderstood , please contact me with
questions/comments/suggestions.  Thanks to Dankseeds for the text file format =)
...it looks perfessional, I like it.
--------------------------------------------------------------------------------------------

CD/Set 1: 60:38:36
01. Wolfman's Brother 05:12:36
02. Rift > 05:54:15
03. Free 09:10:06
04. It's Ice > 08:10:66
05. I Didn't Know 04:07:41
06. Fog that Surrounds 06:11:25
07. Strange Design 02:51:53
08. Chalk Dust Torture 07:16:37
09. The Squirming Coil 11:43:58

----------------------------------------

CD 2/Set 2: 73:07:39
01. Cars, Trucks, Buses 03:40:27
02. AC/DC Bag > 08:20:04
03. David Bowie 16:35:01
04. Billy Breathes 05:27:39
05. Keyboard Cavalry 04:08:56
06. Harry Hood 16:14:27
07. Hello My Baby 01:39:39
08. A Day in the Life 06:04:03
Encore:
09. Possum 10:57:68

--------------------------------------------------------------------------------------------

Debut of Fog that Surrounds, Cars Trucks Buses, Billy Breathes, Keyboard Cavalry, and
Hello My Baby.  Last Wolfman's Brother: 06-26-94 (88 shows).

--------------------------------------------------------------------------------------------

Notes and setlist (not segues) courtesy of The Phish Companion.
Show Checksums
d1
15a7992ba73ec6400659d1ed2f333d03 *ph1995-09-27-d1t01.shn
9a2ec9b68c43641667e4f7efffdf7e91 *ph1995-09-27-d1t02.shn
2be88b5601da3184e80d67c55e13f7ea *ph1995-09-27-d1t03.shn
e17f238f5a9e69e0ac0ed48a25c08646 *ph1995-09-27-d1t04.shn
bd092a6487965ce351ffd0942fee43cd *ph1995-09-27-d1t05.shn
c83488191b8019d2627450069cb18418 *ph1995-09-27-d1t06.shn
f3221fa76f358b6ecf4088ba6ecf69ac *ph1995-09-27-d1t07.shn
647275c22ddb2488ec548c6096fd79d3 *ph1995-09-27-d1t08.shn
5f35426e952512b763bf049a51d1eb99 *ph1995-09-27-d1t09.shn
d2
be5c180e6ea3ee0b93a40becc348de01 *ph1995-09-27d2t01.shn
bc7247920b8b4b9a24fbbe37acd9aa38 *ph1995-09-27d2t02.shn
58572d118c91a9b7e9cf850a17ed813a *ph1995-09-27d2t03.shn
a4f5fb3200c16326e8bce9ff35793ffb *ph1995-09-27d2t04.shn
915ba5aa27e6c8e80c74b85ea992c47f *ph1995-09-27d2t05.shn
7db681defa61608dcbdb9a4d1ade7522 *ph1995-09-27d2t06.shn
93c58f38a5c575b44118b6725b63fb00 *ph1995-09-27d2t07.shn
0084c8fe1d1725f0c1b92e659987e7ba *ph1995-09-27d2t08.shn
d8ab355e197902692b613867e99caf66 *ph1995-09-27d2t09.shn

Comments
Add Comment
Other Sources (comments)
FOB Schoeps mk4; DA-20 >... (2) flac16; AT835a +... (0)
Date User Comment
03/22/2005 twatts I'm thinking that it is another seed of the same thing - a same source, different transfer and it is not meant as an upgrade. Rather it is listed here for reference purposes.

I have no idea...

Terry

03/23/2005 Brandon Johnston This version of the show came via me as well as I own a Phillips CDR-870 (a standalone cdr burner). I transfered this show from dat to standalone cdr a long time ago (before I started making shns/flacs, prior to the year 2000 most likely) for a old cdr tree I used to be on. At that time it was the only way I could transfer my dats. Although I went back and retransfered most of these 95 shows with no eac, some of them were obviously shned up and circulated as is. So in essence, this came from the same dats as the other source, the only difference is the use of a standalone burner and an eac step instead of direct to soundcard. I'm guessing also that since a standalone cdr burner was used, unless the original seeder used shntool, you will find sbes at the end of each disc.
03/23/2005 SHNTOOL OUTPUT:

length expanded size cdr WAVE problems filename
5:12.36 55121516 --- -- ---xx ph1995-09-27-d1t01.shn
5:54.15 62480924 --- -- ---xx ph1995-09-27-d1t02.shn
9:10.06 97034156 --- -- ---xx ph1995-09-27-d1t03.shn
8:10.66 86591276 --- -- ---xx ph1995-09-27-d1t04.shn
4:07.41 43667276 --- -- ---xx ph1995-09-27-d1t05.shn
6:11.25 65503244 --- -- ---xx ph1995-09-27-d1t06.shn
2:51.53 30289100 --- -- ---xx ph1995-09-27-d1t07.shn
7:16.37 76997468 --- -- ---xx ph1995-09-27-d1t08.shn
11:43.58 124145660 --- -- ---xx ph1995-09-27-d1t09.shn
3:40.27 38871548 --- -- ---xx ph1995-09-27d2t01.shn
8:20.04 88209452 --- -- ---xx ph1995-09-27d2t02.shn
16:35.01 175520396 --- -- ---xx ph1995-09-27d2t03.shn
5:27.39 57774572 --- -- ---xx ph1995-09-27d2t04.shn
4:08.56 43878956 --- -- ---xx ph1995-09-27d2t05.shn
16:14.27 171877148 --- -- ---xx ph1995-09-27d2t06.shn
1:39.39 17555372 --- -- ---xx ph1995-09-27d2t07.shn
6:04.03 64216700 --- -- ---xx ph1995-09-27d2t08.shn
10:57.68 116054780 --- -- ---xx ph1995-09-27d2t09.shn
133:46.01 1415789544 B (totals for 18 files, 0.5107 overall compression ratio)