Browse Collections Artists Sources   Search Dates

Add Show    List Management    Help


Grateful Dead 10/27/79
Cape Cod Coliseum, South Yarmouth, MA
Comments Add Comment    Source Collectors    Add to Collection    Add to Want List    History
Source # 28832 Other Sources
Entered by Matt Vernon
Checksums shn-md5 , st5
Disc Counts 1 / 2
Media Size
Date Circulated
Date Added
03/30/05
03/30/2005
Source Summary Set 2 Only: zero gen source upgrade. Lineage: Master SBD Cassette > Master DAT > CDR > EAC > SHN. Seeded to etree by Seth Kaplan : upgrade now in circulation
  Archive
Source Information - Download Text | Download Zip
Band:     Grateful Dead
Venue:    Cape Cod Coliseum
Location: South Yarmouth, MA
Date:     October 27, 1979
Set:      Second
Discs:    Two

Lineage:         Master SBD Cassette > Master DAT > CDR > EAC > SHN
Source:          Master SBD Cassette (Sony TC D5 on Maxell UD XL-II cassette tape)
Source Playback: Sony D5
DAT Transfer:    Panasonic SV3800 (48 KHZ sampling rate)
DAT Playback:    Sony PCM R-700
Disc Transfer:   HHB CDR-800  
      
Disc 1:
2nd Set
Crowd Noise/Tuning >
Dancin' in the Streets* >
Franklin's Tower
He's Gone >
The Other One** >
Drums >

Disc 2:
2nd Set (continued)
Drums >
Not Fade Away >
Black Peter >
Around and Around
Encore:
One More Saturday Night

Notes:
This version containing zero digital or analog generations was transferred to disc directly
off the Master DAT direct from the SBD Master Cassette and is a nice upgrade to the previously
circulating version. (Thanks King Bee & Aoxoa!) Cassette flips in Dancin' in the Streets and The
Other One were patched with the circulating AUD tape detailed below. Edits performed via Cool
Edit 2000. Final audio tracks were run through shntool, adjusted for correct sector boundaries,
then shn'd and verified via MKW.

*    0:17.227 of Dancin' in the Streets was patched in and normalised +3.99db(L)/+3.90db(R)
     from the circulating AUD listed below
**   0:34.455 of The Other One was patched in and normalised +3.32db(L)/+3.17db(R) from the
     circulating AUD listed below . 0:00.129 of dead space at the tape flip was removed from
     the SBD prior to splicing in the AUD segment.    
MAC  (Taped by Steve Rolfe, Nakamichi CM-700 mics) > Sony TC-158 > DAT > CD > EAC > SHN

Known flaws:
Dancin' in the Streets - minor static 9:26.165-9:27.853/9:34.683-9:37.816

Edits and final edited WAV's > SHN by Seth Kaplan ([email protected])

Uploaded to tol 03/30/2005

Shntool output:
length     expanded size   cdr  WAVE problems filename
2:31.16      26674076      ---   --   -----   gd79-10-27set2d1t01.wav
14:43.54     155888252     ---   --   -----   gd79-10-27set2d1t02.wav
19:49.39     209831372     ---   --   -----   gd79-10-27set2d1t03.wav
16:54.41     178966076     ---   --   -----   gd79-10-27set2d1t04.wav
10:11.02     107785148     ---   --   -----   gd79-10-27set2d1t05.wav
2:21.70       25037084     ---   --   -----   gd79-10-27set2d1t06.wav
4:03.39       42956972     ---   --   -----   gd79-10-27set2d2t01.wav
9:13.38       97638620     ---   --   -----   gd79-10-27set2d2t02.wav
9:28.23      100249340     ---   --   -----   gd79-10-27set2d2t03.wav
8:49.11       93341516     ---   --   -----   gd79-10-27set2d2t04.wav
5:39.42       59898428     ---   --   -----   gd79-10-27set2d2t05.wav
103:46.00   1098266884 B (totals for 11 files)                  

Md5's:
cda4d21c9931609d671efbe3d5f49e43 *gd79-10-27set2d1t01.shn
0576201662cee144e5b29606979c2bce *gd79-10-27set2d1t02.shn
f669d4047b6875b33f94908d536e4918 *gd79-10-27set2d1t03.shn
711146e949aceeb182de256aa1f02e86 *gd79-10-27set2d1t04.shn
520349606eb2e0fcf35300b4ff6978bf *gd79-10-27set2d1t05.shn
96e6ce8f7b76d654bace7297b7cad795 *gd79-10-27set2d1t06.shn
971f3edd526b97687efe3d9b3efae2c0 *gd79-10-27set2d2t01.shn
887d7f6bb11bd72ba8ed8313bc353bce *gd79-10-27set2d2t02.shn
a3652e1bb079b6d65fe0785bbfb4fe52 *gd79-10-27set2d2t03.shn
8e477c1737b841d59474f723673c39f7 *gd79-10-27set2d2t04.shn
88a57fcf2949d10718e6cb874beb3bc2 *gd79-10-27set2d2t05.shn
Show Checksums
shn-md5
cda4d21c9931609d671efbe3d5f49e43 *gd79-10-27set2d1t01.shn
0576201662cee144e5b29606979c2bce *gd79-10-27set2d1t02.shn
f669d4047b6875b33f94908d536e4918 *gd79-10-27set2d1t03.shn
711146e949aceeb182de256aa1f02e86 *gd79-10-27set2d1t04.shn
520349606eb2e0fcf35300b4ff6978bf *gd79-10-27set2d1t05.shn
96e6ce8f7b76d654bace7297b7cad795 *gd79-10-27set2d1t06.shn
971f3edd526b97687efe3d9b3efae2c0 *gd79-10-27set2d2t01.shn
887d7f6bb11bd72ba8ed8313bc353bce *gd79-10-27set2d2t02.shn
a3652e1bb079b6d65fe0785bbfb4fe52 *gd79-10-27set2d2t03.shn
8e477c1737b841d59474f723673c39f7 *gd79-10-27set2d2t04.shn
88a57fcf2949d10718e6cb874beb3bc2 *gd79-10-27set2d2t05.shn
st5
dbe858183365c83143ae591ca96d3215 [shntool] gd79-10-27set2d1t01.shn
b95098d7a062be9b933be1e173b495f9 [shntool] gd79-10-27set2d1t02.shn
5e38da7838ec637e448e129c694647af [shntool] gd79-10-27set2d1t03.shn
f3003567fcfb69ad0f64035081f09b1b [shntool] gd79-10-27set2d1t04.shn
1790cd6508baab7250cb2219bd297d6e [shntool] gd79-10-27set2d1t05.shn
dc2c39c128ec417025a5ce2cbd9705e4 [shntool] gd79-10-27set2d1t06.shn
91452d27a6a4e6b56ff2e464a9336d1a [shntool] gd79-10-27set2d2t01.shn
37ac52b0dbfaea5accdac1bbed6707f9 [shntool] gd79-10-27set2d2t02.shn
2f41592105acec0297e51930ffe8915b [shntool] gd79-10-27set2d2t03.shn
4a7693fa42307f3a83d998b469d2cb51 [shntool] gd79-10-27set2d2t04.shn
6945de191bd6e8c4262b8bc6c7a9e11b [shntool] gd79-10-27set2d2t05.shn

Comments
Add Comment
Other Sources (comments)
SBD> [?]> DAT (D. DiProsa)>... (10) Master Soundboard Cassette... (9) Recording by Steve Rolfe:... (0) Repatch of (1) flac16; Recording... (0) flac16; Recording... (0) flac16; SBD and... (0) flac16; Recording... (0) flac16; Recording... (0) flac16; Matrix by... (0) flac16; AUD: 3x... (0) flac16; Sennheiser... (0) flac24; Recorded... (0)
Date User Comment