Browse Collections Artists Sources   Search Dates

Add Show    List Management    Help


Phil Lesh & Friends 07/09/01
Zoo Amphitheatre, Oklahoma City, OK
Comments Add Comment    Source Collectors    Add to Collection    Add to Want List    History
Source # 28911 Other Sources
Entered by Matt Vernon
Checksums flac-md5
Disc Counts 2 / 3
Media Size
Date Circulated
Date Added
04/11/2005
04/11/2005
Source Summary Unknown source fob audience recording 
  Archive
Source Information - Download Text | Download Zip
Phil Lesh & Friends
July 9, 2001
Zoo Amphitheatre
Oklahoma City, OK

Source - Unknown FOB
EAC/FLAC by Matt Vernon

Set 1
Disc 1
01. Crowd/tuning
02. The Music Never Stopped >
03. Cassidy
04. Bomb Bay Doors Fixed
05. Celebration >
06. Crazy Fingers
07. Just A Little Light

Disc 2
------
Set 2
01. Crowd/tuning
02. Jam >
03. Wharf Rat >
04. She Said, She Said >
05. Cryptical Envelopment
06. Stella Blue >
07. Other One >

Disk 3
01. The Wheel
02. Rap/Intros
03. Like A Rolling Stone

Comments
- a somewhat technically flawed but excellent sounding FOB

    length     expanded size   cdr  WAVE problems filename
     1:53.21       19982636    ---   --   ---xx   phil01-07-09d1t01.flac
    14:32.17      153860828    ---   --   ---xx   phil01-07-09d1t02.flac
    11:50.73      125415740    ---   --   ---xx   phil01-07-09d1t03.flac
     2:57.46       31331036    ---   --   ---xx   phil01-07-09d1t04.flac
    19:10.57      202994108    ---   --   ---xx   phil01-07-09d1t05.flac
    14:58.65      158560124    ---   --   ---xx   phil01-07-09d1t06.flac
    12:36.48      133471340    ---   --   ---xx   phil01-07-09d1t07.flac
     1:19.50       14053244    ---   --   ---xx   phil01-07-09d2t01.flac
     6:40.53       70684700    ---   --   ---xx   phil01-07-09d2t02.flac
    17:29.23      185097740    ---   --   ---xx   phil01-07-09d2t03.flac
    10:58.24      116127692    ---   --   ---xx   phil01-07-09d2t04.flac
    12:05.49      128005292    ---   --   ---xx   phil01-07-09d2t05.flac
    11:45.64      124512572    ---   --   ---xx   phil01-07-09d2t06.flac
     6:00.34       63584012    ---   --   ---xx   phil01-07-09d2t07.flac
     7:26.37       78761468    ---   --   ---xx   phil01-07-09d3t01.flac
     2:16.59       24129212    ---   --   ---xx   phil01-07-09d3t02.flac
     9:35.41      101526476    ---   --   ---xx   phil01-07-09d3t03.flac
   163:39.11     1732098220 B                     (totals for 17 files, 0.5885 overall compression ratio)


Show Checksums
flac-md5
ec7bf6b4a0a0e8249b3dc01f00c1a5f1 *phil01-07-09d1t01.flac
a53fbd3720b0a4433ae1747eb85063ef *phil01-07-09d1t02.flac
d99b52c11b6c659ae1fd52d55564c5d9 *phil01-07-09d1t03.flac
e83e3dde85d9c04754d9e870e56418bb *phil01-07-09d1t04.flac
45ccebfef711d63a338bd0a73583887f *phil01-07-09d1t05.flac
eafc30fb6916ec4101447f573321477b *phil01-07-09d1t06.flac
5872b0dc0d9e0fbc28ba93942db8a873 *phil01-07-09d1t07.flac
27e9b6b5323fedfe54d1cf9f626032d1 *phil01-07-09d2t01.flac
9b066904de6aa4aefff4400faefd6c46 *phil01-07-09d2t02.flac
63779d06b9ff77b110ff501698c0a737 *phil01-07-09d2t03.flac
d9bb8ad7c6651bcc6912a97bd1450e6b *phil01-07-09d2t04.flac
47834b587302778d9d3e3daba7416670 *phil01-07-09d2t05.flac
a936dece9d96fd23beb7ffc640518167 *phil01-07-09d2t06.flac
2156b8259c0334c081c7559bb631ccfb *phil01-07-09d2t07.flac
928fecac6ba2a408b758f93233d5c00d *phil01-07-09d3t01.flac
3e3ce724f44df1a774f4b791dc53322a *phil01-07-09d3t02.flac
3a286de692d19d6acfb91625c416187a *phil01-07-09d3t03.flac

Comments
Add Comment
Other Sources (comments)
AT 4051a > AETA PSP-2 >... (0) Original Source: AT... (0)
Date User Comment