Browse Collections Artists Sources   Search Dates

Add Show    List Management    Help


Grateful Dead 08/30/83
Silva Hall, Hult Center, Eugene, OR
Comments Add Comment    Source Collectors    Add to Collection    Add to Want List    History
Source # 29342 Other Sources
Entered by Matt Vernon
Checksums flac-md5 , ffp
Disc Counts 2 / 2
Media Size
Date Circulated
Date Added
05/22/2005
05/23/2005
Source Summary flac16; Source: Sennheiser 421's > Sony TC-D5 Lineage: MAC > C (first generation cassette used for this transfer) Transfer: C > Sony TC-D5M > Soundblaster > Soundforge > CD-Wave > FLAC. Seeded by nfagdtrfbyahoo 
  Archive
Source Information - Download Text | Download Zip
Grateful Dead
Silva Hall
Hult Center
Eugene OR
08-30-1983

Source: Sennheiser 421's > Sony TC-D5
Lineage: MAC > C (first generation cassette used for this transfer)
Transfer: C > Sony TC-D5M > Soundblaster > Soundforge > CD-Wave > FLAC

Disc One
01 [08:11] Feel Like a Stranger
02 [06:28] Candyman
03 [05:25] Brother Esau
04 [03:42] Dire Wolf
05 [09:22] Little Red Rooster
06 [08:02] Tennessee Jed
07 [03:09] Lazy Lightnin >
08 [08:28] Supplication >
08 [08:28] Deal
   -- set break --
09 [06:21] Touch of Grey
10 [08:05] Samson & Delilah
   [76:25] total time

Disc Two
01 [12:53] Terrapin
02 [03:08] mini jam > terrapin reprise
03 [08:47] drums >
04 [10:09] space >
05 [08:04] Throwing Stones >
06 [07:58] Not Fade Away >
07 [09:57] Wharf Rat >
08 [08:39] Sugar Magnolia
   -- encore --
09 [06:13] Brokedown Palace
   [75:51] total time

Notes:

Yes, it's a first-gen, but it sounds really great. This far surpasses the aud
that is currently posted on the archive. Got this tape in early '84 directly
from the taper (nice fellow from Virginia whose name I've fotgotten.) This was
taped on the floor, and sounds FOB with very close-up sound. Jerry's guitar is
better in this mix than on the chopped-up sbd that circulates.

The static you hear during Stranger was coming from the PA system. The tape was
paused between some songs; Rooster, Lazy Lightnin, and Terrapin start up abruptly
with a little bit missing. There's an abrupt end to Tennessee Jed for a tape flip.
There was a tape flip and (presumably) rewinding at the end of drums, seems to be
less than a minute missing from space. Soundforge was used for fades, to clean up
the tape flips, and to fix a small dropout in Dire Wolf. I patched a few seconds
of audience left channel onto a right channel drop-out at the end of Esau.
CD-Wave was used for track ID's and FLAC Frontend for lossless compression.
Transferred May 2005. ENJOY!

    length     expanded size   cdr  WAVE problems filename
     8:11.44       86715932    ---   --   ---xx   gd1983-08-30d1t01.flac
     6:28.03       68450300    ---   --   ---xx   gd1983-08-30d1t02.flac
     5:25.15       57365324    ---   --   ---xx   gd1983-08-30d1t03.flac
     3:42.40       39254924    ---   --   ---xx   gd1983-08-30d1t04.flac
     9:22.63       99285020    ---   --   ---xx   gd1983-08-30d1t05.flac
     8:02.01       85027196    ---   --   ---xx   gd1983-08-30d1t06.flac
     3:49.27       40459148    ---   --   ---xx   gd1983-08-30d1t07.flac
     8:28.52       89733548    ---   --   ---xx   gd1983-08-30d1t08.flac
     8:28.17       89650636    -b-   --   ---xx   gd1983-08-30d1t09.flac
     6:21.30       67279004    ---   --   ---xx   gd1983-08-30d1t10.flac
     8:05.36       85638716    ---   --   ---xx   gd1983-08-30d1t11.flac
    12:53.09      136378412    ---   --   ---xx   gd1983-08-30d2t01.flac
     3:08.30       33233804    ---   --   ---xx   gd1983-08-30d2t02.flac
     8:47.23       93016652    -b-   --   ---xx   gd1983-08-30d2t03.flac
    10:09.67      107585228    ---   --   ---xx   gd1983-08-30d2t04.flac
     8:04.09       85398812    ---   --   ---xx   gd1983-08-30d2t05.flac
     7:58.16       84356876    ---   --   ---xx   gd1983-08-30d2t06.flac
     9:57.46      105419036    ---   --   ---xx   gd1983-08-30d2t07.flac
     8:39.14       91585740    -b-   --   ---xx   gd1983-08-30d2t08.flac
     6:13.38       65887276    -b-   --   ---xx   gd1983-08-30d2t09.flac
   152:16.55     1611721584 B                     (totals for 20 files, 0.5675 overall compression ratio)
Show Checksums
flac-md5
2e6684da83d69a87215b05d64e7b2cbd *gd1983-08-30d1t01.flac
760a58fdde0dbb7475e9fe7702a1116f *gd1983-08-30d1t02.flac
1b3d19da828a8cf5dc9e07f9fbd75c33 *gd1983-08-30d1t03.flac
934c61bd21f519b391062f7d761bc576 *gd1983-08-30d1t04.flac
a5451bc1d7b8d46c3dd3c4785891cb20 *gd1983-08-30d1t05.flac
b28795ab7fdf82c1e82cf7f441793d42 *gd1983-08-30d1t06.flac
767defe25144b62aa4096dd576332fbc *gd1983-08-30d1t07.flac
243c2c6e4a110a8eaec0ec213842e4a2 *gd1983-08-30d1t08.flac
8631689a79814c167bc55e343e569bc0 *gd1983-08-30d1t09.flac
07f57bf5978752eba800d7764a413792 *gd1983-08-30d1t10.flac
a617441177c255fd83572c0cd028925d *gd1983-08-30d1t11.flac
4684df9e95a7edbe3300f050ddd3db89 *gd1983-08-30d2t01.flac
1b8d99dede3d9459e91e2eac9a5fc91e *gd1983-08-30d2t02.flac
25843e526f382815c17c601754bdf3e6 *gd1983-08-30d2t03.flac
9aaf04a7087ac59c999700a069ae9115 *gd1983-08-30d2t04.flac
7656335ea3affb647a1a017b6ba59569 *gd1983-08-30d2t05.flac
adb9befc4ac732428510c106d2130ffd *gd1983-08-30d2t06.flac
b54f7824c1cb04ea87eb6d293bf3b25c *gd1983-08-30d2t07.flac
e979c2291681699be18ae4f5c3c62f99 *gd1983-08-30d2t08.flac
c0adb8ab33dfc0b8e53dde9bc30af9d9 *gd1983-08-30d2t09.flac
ffp
gd1983-08-30d1t01.flac:15d3d3d2f7eb086dd534df30e8adf450
gd1983-08-30d1t02.flac:f7cbb77b5e77115f412e974b1bb4edff
gd1983-08-30d1t03.flac:b82624c5c0c8d12a3f0f671be1c74023
gd1983-08-30d1t04.flac:8154a6bf19240d7fd304b3a43c261e95
gd1983-08-30d1t05.flac:377a81e07958a1b1b7938b54ae73c345
gd1983-08-30d1t06.flac:d0b8409934713f34c1bd9ed9fa9abc04
gd1983-08-30d1t07.flac:c0025718acb59c8a8be6f968aa5d4986
gd1983-08-30d1t08.flac:242b5be9698fc7d329749d40f3fc3e7d
gd1983-08-30d1t09.flac:1718e7a172520f1aba2472d519f7e9e0
gd1983-08-30d1t10.flac:de3aa86de905f92f0721b016246d3d91
gd1983-08-30d1t11.flac:4d214f22756c28ece7bc60ae79ed2e14
gd1983-08-30d2t01.flac:b36ec5f6fbf57419555a78b924e30bc1
gd1983-08-30d2t02.flac:609855acc1403ce3d2ade58a87662f6a
gd1983-08-30d2t03.flac:960823e90a1e5024a62ada1fc5d95356
gd1983-08-30d2t04.flac:0453b97f1ae49a6c4e5126830d1a8210
gd1983-08-30d2t05.flac:072690322d8219352fdf6e5cf678faaa
gd1983-08-30d2t06.flac:76215a3805ede88d8b21396c0941be2a
gd1983-08-30d2t07.flac:0e4380f3803ed8711926bc407c41b167
gd1983-08-30d2t08.flac:e21a11893453c84867987b5399838c1e
gd1983-08-30d2t09.flac:ba1a05bcabbc458d2cb982bf9535988e

Comments
Add Comment
Other Sources (comments)
AUD (Senn. 421?s)> MC> DAT>... (2) Keysey intro: MSC>Cass. x... (0) flac16; Source: 2... (0) flac24; Source Info:... (0) flac16; Source Info:... (0) flac16/44.1kh ... (0) flac24/48 Source:... (0)
Date User Comment
01/15/2011 nfagdtrfb This appears to match -- and is upgraded by -- ID # 111590. Thanks DaWeez & D5Scott!