Browse Collections Artists Sources   Search Dates

Add Show    List Management    Help


Phish 08/10/87
Nectar's, Burlington, VT
Comments Add Comment    Source Collectors    Add to Collection    Add to Want List    History
Source # 29630 Other Sources
Entered by Terry Watts
Checksums FLAC MD5 , FFP
Disc Counts 0 / 0
Media Size
Date Circulated
Date Added
06/10/05
06/14/2005
Source Summary flac16, 44kHz; unknown AUD > Cass(x) > DAT(c) > Cass(m); Cass(m) > Denon DRW-840 > Sony PCM-R500 > AP2496 > Samplitude > FLAC; Source by unknown; Transfer by Edmund Edwards 
Source Information - Download Text | Download Zip
Phish 8/10/87
Nectar's, Burlington, VT

Source: unknown AUD> CassX> DAT> Cass0 (recorded 10/97)

Transfer: Dennon DRW-840> Sony r500> Audiophile 2496> Samplitude 5.5 at 44.1> WAV> FLAC on 6/10/05 by EEE

Disc 1 - 79:08
Set I
1.  Peaches en Regalia
2.  Alumni Blues
3.  Golgi Apparatus
4.  Wilson
5.  Quinn the Eskimo
6.  The Divided Sky//
7.  Good Times Bad Times
Set II
8.  Fire
9.  //AC/DC//Bag#->
10. Possum
11. Fluffhead
12. Fee
Set III (end of show)
13. Tush
14. Dear Mrs. Reagan

Disc 2 - 77:28
1.  The Curtain With (last song of set II)
Set III
2.  I Know a Little
3.  Mustang Sally
4.  You Enjoy Myself
5.  La Grange
6.  Icculus*
7.  David//Bowie#
8.  Jesus Just Left Chicago
9.  Whipping Post
10. Anarchy

#tape flip songs joined using Cool Edit Pro
*deadicated to Paul's mom on her birthday
Between many of the songs there are cuts where the master was paused or crowd was edited out.

**HPB courtesy phish.net**
1: Peaches en Regalia, Alumni Blues, Golgi Apparatus, Wilson, Quinn the Eskimo, The Divided Sky, Good Times Bad Times, AC/DC Bag, Possum, Fluffhead, Fee, The Curtain

2: I Know a Little, Mustang Sally, You Enjoy Myself, La Grange, Icculus, David Bowie, Jesus Just Left Chicago, Whipping Post, Anarchy, Tush, Dear Mrs. Reagan

SHNTOOL OUTPUT:

    length     expanded size   cdr  WAVE problems filename
     3:23.60       35950364    ---   --   -----   ph1987-08-10d1t01.wav
     6:29.62       68765468    ---   --   -----   ph1987-08-10d1t02.wav
     5:15.70       55730684    ---   --   -----   ph1987-08-10d1t03.wav
     5:06.68       54138380    ---   --   -----   ph1987-08-10d1t04.wav
     6:09.43       65192780    ---   --   -----   ph1987-08-10d1t05.wav
     4:20.46       45972236    ---   --   -----   ph1987-08-10d1t06.wav
     5:00.26       52981196    ---   --   -----   ph1987-08-10d1t07.wav
     4:57.71       52557836    ---   --   -----   ph1987-08-10d1t08.wav
     7:44.01       81851996    ---   --   -----   ph1987-08-10d1t09.wav
     8:38.11       91401116    ---   --   -----   ph1987-08-10d1t10.wav
     9:32.01      100903196    ---   --   -----   ph1987-08-10d1t11.wav
     5:42.63       60477020    ---   --   -----   ph1987-08-10d1t12.wav
     3:24.61       36129116    ---   --   -----   ph1987-08-10d1t13.wav
     3:20.01       35282396    ---   --   -----   ph1987-08-10d1t14.wav
    10:39.16      112757276    ---   --   -----   ph1987-08-10d2t01.wav
     3:47.74       40216892    ---   --   -----   ph1987-08-10d2t02.wav
     7:09.27       75739148    ---   --   -----   ph1987-08-10d2t03.wav
    14:42.38      155674220    ---   --   -----   ph1987-08-10d2t04.wav
     3:33.19       37617932    ---   --   -----   ph1987-08-10d2t05.wav
     2:28.25       26166044    ---   --   -----   ph1987-08-10d2t06.wav
    15:56.60      168779564    ---   --   -----   ph1987-08-10d2t07.wav
     7:20.67       77773628    ---   --   -----   ph1987-08-10d2t08.wav
    10:29.11      110981516    ---   --   -----   ph1987-08-10d2t09.wav
     1:18.38       13848620    ---   --   -----   ph1987-08-10d2t10.wav
   156:32.59     1656888624 B                     (totals for 24 files, 1.0000 overall compression ratio)



Show Checksums
FLAC MD5
6378e4c2a6579f3cd3642109c4c59f10 *ph1987-08-10d1t01.flac
7aee313d56786c2bcf15b0c7577bee72 *ph1987-08-10d1t02.flac
a050a7e1b1c7693be9f14ef7ca78cabb *ph1987-08-10d1t03.flac
bfefad2d5e3c7a893b4021058ed5d7e0 *ph1987-08-10d1t04.flac
cdf6b1908e86eba27fed9ba412011054 *ph1987-08-10d1t05.flac
0d132c242d954c20d9c05e640cb867d7 *ph1987-08-10d1t06.flac
caac62cb514c31630142a580d086cd1f *ph1987-08-10d1t07.flac
75226834bda74c821ae62597d473f2f2 *ph1987-08-10d1t08.flac
3d4a4d3be72a6a48d0c78ad8cf8a9c6c *ph1987-08-10d1t09.flac
8a5600187e3f29d2cc0fd7018620122e *ph1987-08-10d1t10.flac
07e25401b8bb06b6f6fa7f043bfcbab5 *ph1987-08-10d1t11.flac
ad32d079e97f70614505c1c0c886c678 *ph1987-08-10d1t12.flac
a2ae841bff3cdc68154096ce155184ce *ph1987-08-10d1t13.flac
3569145850c49f42ccaa0e7e3417c1a5 *ph1987-08-10d1t14.flac
7e05c0f90f37824fa9702239eaaa4c0b *ph1987-08-10d2t01.flac
3987f528b62246ffc801c8df7ccf2028 *ph1987-08-10d2t02.flac
fdf31b2073e2d161540f1d2fb8c29f0f *ph1987-08-10d2t03.flac
2ba0bd59a288fbc14055e7ea95430af1 *ph1987-08-10d2t04.flac
35bc1c9f12404fe4e93fb8316ffd6adb *ph1987-08-10d2t05.flac
be16d7243611eb9aea24ee86b95aac6c *ph1987-08-10d2t06.flac
94b3611e4e9b7c7327cbeecd1f4aaaa0 *ph1987-08-10d2t07.flac
73db1e711d9edfcd63de0bd3b011b13b *ph1987-08-10d2t08.flac
72896357bf52080d7e94466ed11d3a72 *ph1987-08-10d2t09.flac
a9f110495cbd069d26f7e62cb215553e *ph1987-08-10d2t10.flac
FFP
ph1987-08-10d1t01.flac:87251a56e4b5513d1d894feee6afa7d4
ph1987-08-10d1t02.flac:f4f93ea529796e0f4c91d806b974d396
ph1987-08-10d1t03.flac:d797c1ad94baec439b0406807e245fbd
ph1987-08-10d1t04.flac:8ec7287f04a3dcd6a05503e4e7188292
ph1987-08-10d1t05.flac:fec19550bd538d2e31fdb5783bed3245
ph1987-08-10d1t06.flac:186b90de282f45ee0e90f6a278d4f232
ph1987-08-10d1t07.flac:79e26b11bc9505a678c91f7aed6a0b92
ph1987-08-10d1t08.flac:6cad4c1d778f05cf58a4967af95ca7cb
ph1987-08-10d1t09.flac:a62270be8313ca124e027c67e1699e14
ph1987-08-10d1t10.flac:6e08c91ef36787648ba44bd13ef86634
ph1987-08-10d1t11.flac:df35f481afd5faa4e841b336c14d0050
ph1987-08-10d1t12.flac:259feeb0c101cd908d28faca80e02148
ph1987-08-10d1t13.flac:6da4269cc7f31128685592af3afc9d73
ph1987-08-10d1t14.flac:a55ea386997d27d9b382716fe410a88d
ph1987-08-10d2t01.flac:f06873e4928d88415558303417949045
ph1987-08-10d2t02.flac:d107ef99bb1943f6ed7dc15c6edba4cc
ph1987-08-10d2t03.flac:f851dcd3ca301e29ed1ab672ec287246
ph1987-08-10d2t04.flac:a8858d2edb29923bf13e095b5c759c29
ph1987-08-10d2t05.flac:6fa20f5503096e69d21016cc3d882c76
ph1987-08-10d2t06.flac:4afe19d11a6453e59516b531587c88dd
ph1987-08-10d2t07.flac:635c7db083a72c3e22035ed25117007b
ph1987-08-10d2t08.flac:74443454bda80d8875edb92c715f9928
ph1987-08-10d2t09.flac:29f625a30034562ee3bdfd86ed72d0eb
ph1987-08-10d2t10.flac:d7a0d00aa208477ec5d97dcbf02e313f

Comments
Add Comment
Other Sources (comments)
flac16, 48kHz;... (0)
Date User Comment