Browse Collections Artists Sources   Search Dates

Add Show    List Management    Help


Phish 03/30/89
The Front, Burlington, VT
Comments Add Comment    Source Collectors    Add to Collection    Add to Want List    History
Source # 29646 Other Sources
Entered by Terry Watts
Checksums FLAC MD5 , FFP
Disc Counts 0 / 0
Media Size
Date Circulated
Date Added
06/12/05
06/15/2005
Source Summary flac16, 44kHz; SBD > Cass(3); Cass(3) > Denon DRW-840 > Sony PCM-R500 > Audiophile 2496 > Samplitude > FLAC; Source by unknown; Transfer by Edmund Edwards 
Source Information - Download Text | Download Zip
Phish - 3/30/89
The Front, Burlington, VT

Source: SBD> Cass/3 (recorded 1/95)

Transfer: Dennon DRW-840> Sony r500> Audiophile 2496> Samplitude 5.5 at 44.1> WAV> FLAC on 6/12/05 by EEE

Disc 1 / Set I:
1.  Banter
2.  Bold as Love
3.  McGrupp and the Watchful Hosemasters
4.  The Divided Sky
5.  Banter
6.  The Price of Love
7.  On Your Way Down
8.  Ya//Mar#
9.  Fluffhead
10. Run Like an Antelope

Disc 2 / Set II:
1.  The Mango Song
2.  Mike's Song->
3.  I Am Hydrogen->
4.  Weekapaug Groove\\#
5.  You Enjoy Myself->
6.  You're No Good->
7.  Undun
8.  La Grange
9.  Golgi Apparatus
Set III:
10. Tuning
11. Peaches en Regalia
12. Foam
13. AC/DC Bag
14. Big Black Furry Creature From Mars
15. Satin Doll
16. Rocky Top

Disc 3 / Encore:
1.  Makisupa Policeman
#tape flip - songs joined with Cool Edit Pro
NOTE: For two disc burning eliminate D1T05 (between songs) and burn Makisupa at the end of disc 1.

SHNTOOL OUTPUT:

    length     expanded size   cdr  WAVE problems filename
     2:33.48       27102140    ---   --   -----   phish1989-03-30d1t01.wav
     6:11.35       65526764    ---   --   -----   phish1989-03-30d1t02.wav
     9:57.01      105313196    ---   --   -----   phish1989-03-30d1t03.wav
    12:07.09      128264012    ---   --   -----   phish1989-03-30d1t04.wav
     1:48.74       19225292    ---   --   -----   phish1989-03-30d1t05.wav
     5:39.29       59867852    ---   --   -----   phish1989-03-30d1t06.wav
     5:33.07       58757708    ---   --   -----   phish1989-03-30d1t07.wav
     6:13.40       65891324    ---   --   -----   phish1989-03-30d1t08.wav
    15:24.60      163134764    ---   --   -----   phish1989-03-30d1t09.wav
     9:34.21      101303036    ---   --   -----   phish1989-03-30d1t10.wav
     7:00.64       74238572    ---   --   -----   phish1989-03-30d2t01.wav
     4:55.31       52110956    ---   --   -----   phish1989-03-30d2t02.wav
     2:31.70       26801084    ---   --   -----   phish1989-03-30d2t03.wav
     1:31.05       16064204    ---   --   -----   phish1989-03-30d2t04.wav
     1:22.73       14636540    ---   --   -----   phish1989-03-30d2t05.wav
    14:26.29      152830652    ---   --   -----   phish1989-03-30d2t06.wav
     5:28.31       57932156    ---   --   -----   phish1989-03-30d2t07.wav
     5:26.47       57616988    ---   --   -----   phish1989-03-30d2t08.wav
     4:43.09       49942412    ---   --   -----   phish1989-03-30d2t09.wav
     0:47.73        8462540    ---   --   -----   phish1989-03-30d2t10.wav
     3:08.70       33327884    ---   --   -----   phish1989-03-30d2t11.wav
     7:46.17       82242428    ---   --   -----   phish1989-03-30d2t12.wav
     6:45.06       71456156    ---   --   -----   phish1989-03-30d2t13.wav
     3:41.48       39097340    ---   --   -----   phish1989-03-30d2t14.wav
     6:14.46       66081836    ---   --   -----   phish1989-03-30d2t15.wav
     3:17.32       34826108    ---   --   -----   phish1989-03-30d2t16.wav
     5:56.30       62869004    ---   --   -----   phish1989-03-30d3t01.wav
   160:08.30     1694922948 B                     (totals for 27 files, 1.0000 o
verall compression ratio)
Show Checksums
FLAC MD5
0a1738a798becfc28168a9e0eadc3fc8 *phish1989-03-30d1t01.flac
253d412847679ee41bce82bd20d2c68e *phish1989-03-30d1t02.flac
3622a24799c634174ed7cbf189b4fd95 *phish1989-03-30d1t03.flac
6698cfbb4f62f2e65c218f5236292c98 *phish1989-03-30d1t04.flac
042fe7b3630131a5b2b29cf424df8359 *phish1989-03-30d1t05.flac
cba10add80feeed20700e3079abc4851 *phish1989-03-30d1t06.flac
8f367498a6867328ee0e9aeca8d6df58 *phish1989-03-30d1t07.flac
db91b455f5ecd8b99a40d3b5b6edc9cf *phish1989-03-30d1t08.flac
9ebf588b055ee7c5fd58bdc28178b104 *phish1989-03-30d1t09.flac
18008dfb18fc49b5b17d692b3b407957 *phish1989-03-30d1t10.flac
d6a552cb8781e5cea9cb423492064ebf *phish1989-03-30d2t01.flac
3ad51bedca923abd6b8e9870f38bc2a6 *phish1989-03-30d2t02.flac
c038bc99204c1f6cbb68600cf51afbd6 *phish1989-03-30d2t03.flac
93396d54b7ac34c75b6643e6a17e0726 *phish1989-03-30d2t04.flac
018678b45f52875b500e5c58cb6bf5b1 *phish1989-03-30d2t05.flac
3c268923c5226d368a69eca326ffb9ec *phish1989-03-30d2t06.flac
242edde5282513d836659b088ec550f0 *phish1989-03-30d2t07.flac
1cb80db94056ce7e048e7ce68859674e *phish1989-03-30d2t08.flac
efd270e067840ce26475c13c8e9ff5cb *phish1989-03-30d2t09.flac
8d53d123f9b8c55787968acdff5a93bd *phish1989-03-30d2t10.flac
8a1729d3248eee048ec4139d8bd492aa *phish1989-03-30d2t11.flac
0edf4bc326de739e43992a9553f728ab *phish1989-03-30d2t12.flac
1267c48a7921eb69cfc59133b6ea0242 *phish1989-03-30d2t13.flac
6513cc1e098bcb0ce1f694b1f74c9657 *phish1989-03-30d2t14.flac
c58bb682bee7379270791f4b0f1f8c6c *phish1989-03-30d2t15.flac
4a81e5596e9496f3069b9b078a2bf1a3 *phish1989-03-30d2t16.flac
c33b18fb6fb57256a993744986145927 *phish1989-03-30d3t01.flac
FFP
phish1989-03-30d1t02.flac:aabf403dcd1ac1c5765f74abcedb3abb
phish1989-03-30d1t03.flac:89f72f21ee9e97f74210bc62b648cc5e
phish1989-03-30d1t04.flac:e2e582ab2ca444cd6735802c658efce6
phish1989-03-30d1t05.flac:82c4dce14b25827061e3b84750fe2957
phish1989-03-30d1t06.flac:1fa5f95720debd46f9e5e950d697d786
phish1989-03-30d1t07.flac:76a7b9c63c1fabafed7a11757d83f034
phish1989-03-30d1t08.flac:823770b10da4b018239d85b353fc795a
phish1989-03-30d1t09.flac:70d929f7c5485f41c69bf7b242b4c6cf
phish1989-03-30d1t10.flac:a8569ce067b6c5efb217dd4715096f3c
phish1989-03-30d2t01.flac:a2915a86c4c859c2191489509f69a9c3
phish1989-03-30d2t02.flac:f6cd87f5169b20c97218f59c290bc501
phish1989-03-30d2t03.flac:47f96b2ce46250aedbddfadd302a7ec3
phish1989-03-30d2t04.flac:80bb96b54d9bbe63893c800a1582a118
phish1989-03-30d2t05.flac:06285e6d6dbe90cb07527c2a6b94aaae
phish1989-03-30d2t06.flac:3b0d74de36ffb274c0e5af92466766bb
phish1989-03-30d2t07.flac:6c464468a5c4f574434b79d364055736
phish1989-03-30d2t08.flac:ea8ea7a4e705a9e2ac243678da1d591b
phish1989-03-30d2t09.flac:ea9a4cf453ed3e79c45d31e17c631ff1
phish1989-03-30d2t10.flac:5ae65926ea609f4747747782f2d79888
phish1989-03-30d2t11.flac:46e27762ae31188d4c2dfc484f0465c5
phish1989-03-30d2t12.flac:096fea867c43437a3931315a1f537952
phish1989-03-30d2t13.flac:da76cca695671bd9d79e02dc5db852d1
phish1989-03-30d2t14.flac:01ea5de0faf595ffe4a7afb513850ee0
phish1989-03-30d2t15.flac:854fa3ae17891ff84417d193fe31b769
phish1989-03-30d2t16.flac:d7f400a1f0ff5796601ab60322868c66
phish1989-03-30d3t01.flac:02add04b081ffc4279366e5ca530c163
phish1989-03-30d1t01.flac:b46802a65abef426bff5cb2a4b26a34f

Comments
Add Comment
Other Sources (comments)
flac16, 44kHz; SBD >... (0)
Date User Comment