Browse Collections Artists Sources   Search Dates Setlists

Add Show    List Management    Forums    Help


Phish 11/19/87
Hunt's, Burlington, VT
Comments Add Comment    Source Collectors    Add to Collection    Add to Want List    History
Source # 29744 Other Sources
Entered by Ben Mohr
Checksums all_flac_md5 , all_ffp
Disc Counts 1 / 2
Media Size
Date Circulated
Date Added
06/13/05
06/22/2005
Source Summary Set 3 only; SBD > Cass/x > Dennon DRW-840 > Sony R500 > Audiophile 2496 > Samplitude 5.5 > FLAC 
Source Information - Download Text | Download Zip
Phish 11/19/87
Hunt's, Burlington, VT

Source: SBD> CassX (recorded 10/95)

Transfer: Dennon DRW-840> Sony r500> Audiophile 2496> Samplitude 5.5 at 44.1> WAV> FLAC on 6/13/05 by EEE

Disc 1 / Set III: [79:37 - without d1t14 and with d2t01]
1.  Jam
2.  Suzy\\Greenberg$
3.  Pos\\sum
4.  The Divided Sky->
5.  Big Black Furry Creature From Mars
6.  Dinner and a Movie
7.  The Ballad of Curtis Loew
8.  Whipping\\Post#
9.  Harpua
10. Take the A-Train
11. Camel Walk
12. La Grange
13. Bike
14. Banter

Disc 2 / Set III cont
1.  Slave to the Traffic Light

-For one disc burning do not burn t14 and Slave will fit
-This tapes has a bunch of cuts and warts, more then listed above I'm sure.
*Starts with Sweet Home Alabama-like music
#tape flip, just the very last notes joined together with Cool Edit Pro

SHNTOOL OUTPUT

    length     expanded size   cdr  WAVE problems filename
     1:17.63       13731020    ---   --   -----   ph1987-11-19s3d1t01.wav
     5:28.45       57965084    ---   --   -----   ph1987-11-19s3d1t02.wav
     5:17.01       55921196    ---   --   -----   ph1987-11-19s3d1t03.wav
     4:15.73       45153740    ---   --   -----   ph1987-11-19s3d1t04.wav
     3:16.53       34699100    ---   --   -----   ph1987-11-19s3d1t05.wav
     7:43.53       81797900    ---   --   -----   ph1987-11-19s3d1t06.wav
     5:09.64       54658172    ---   --   -----   ph1987-11-19s3d1t07.wav
    14:12.30      150363404    ---   --   -----   ph1987-11-19s3d1t08.wav
     6:55.46       73314236    ---   --   -----   ph1987-11-19s3d1t09.wav
     5:34.65       59070524    ---   --   -----   ph1987-11-19s3d1t10.wav
     4:52.49       51624092    ---   --   -----   ph1987-11-19s3d1t11.wav
     3:58.07       41999708    ---   --   -----   ph1987-11-19s3d1t12.wav
     4:20.67       46021628    ---   --   -----   ph1987-11-19s3d1t13.wav
     0:54.30        9596204    ---   --   -----   ph1987-11-19s3d1t14.wav
     7:11.52       76150748    ---   --   -----   ph1987-11-19s3d2t01.wav
    80:30.23      852066756 B                     (totals for 15 files, 1.0000 o
verall compression ratio)
Show Checksums
all_flac_md5
89d4a380de8ac7e2323dd0a5322c6883 *ph1987-11-19s3d1t01.flac
46aad9d4d7036ca08627fe6beaf0d479 *ph1987-11-19s3d1t02.flac
6fce9171be08d732f89129dbcd283d6f *ph1987-11-19s3d1t03.flac
2a5c18a386c4cd86589952e224976a77 *ph1987-11-19s3d1t04.flac
94ec752ecd34bd0066ecece1e88a1834 *ph1987-11-19s3d1t05.flac
59200c44d14890f7cb6c2cfd0e0869f2 *ph1987-11-19s3d1t06.flac
ea41c80979780362544f86b243d15304 *ph1987-11-19s3d1t07.flac
058455e4427e6c758ff673b35c81a1a1 *ph1987-11-19s3d1t08.flac
d769bffafb53b0db45533bfa5c0a4f82 *ph1987-11-19s3d1t09.flac
d2d0d92d328404a653b7fb38d3577ad5 *ph1987-11-19s3d1t10.flac
44248034d904b0fb48419f7a9e19ee71 *ph1987-11-19s3d1t11.flac
a8b31833d92e53bea9a2a33cca8841bf *ph1987-11-19s3d1t12.flac
2fdd91c6599f4a89e1e4638cf8882628 *ph1987-11-19s3d1t13.flac
2c4f0731a8c89796acacf2b88114b88f *ph1987-11-19s3d1t14.flac
2edf4c3fbece09abfbf609fa985a5d82 *ph1987-11-19s3d2t01.flac
all_ffp
ph1987-11-19s3d1t06.flac:16237840241378d65190e4394a286dd2
ph1987-11-19s3d1t07.flac:178f8b7fc70e06596db3295ccd6458ee
ph1987-11-19s3d1t08.flac:877a246bfb75a5723eda1c9a6ce8d3ee
ph1987-11-19s3d1t09.flac:274b00d8b8c625e57eb3049a6d5406c0
ph1987-11-19s3d1t10.flac:f3ff3d49130554fe346ec22276419898
ph1987-11-19s3d1t11.flac:196e2a08677f69a3fb0405aa5701b2fd
ph1987-11-19s3d1t12.flac:89992a86bea247cb28ba29ef8a01b5d5
ph1987-11-19s3d1t13.flac:344509c2229713f5d032cd5babcaa302
ph1987-11-19s3d1t14.flac:adc52a27f2486a72d7c75262b3aa2551
ph1987-11-19s3d2t01.flac:74f8888eac85d722e1191642ea27d205
ph1987-11-19s3d1t01.flac:775dc68a69010766196de63b8970e329
ph1987-11-19s3d1t02.flac:32f1d89008072fbfdec07d5d66d85a8b
ph1987-11-19s3d1t03.flac:e2504f6e5f876986d958c5d03714d14e
ph1987-11-19s3d1t04.flac:084f9c7aae56b1df1c63358672c18923
ph1987-11-19s3d1t05.flac:946cb155cc307433fbdd03f488a032d9

Comments
Add Comment
Other Sources (comments)
SBD > Cass/X; Yamaha... (0)
Date User Comment