Browse Collections Artists Sources   Search Dates

Add Show    List Management    Help


Grateful Dead 05/04/81
The Spectrum, Philadelphia, PA
Comments Add Comment    Source Collectors    Add to Collection    Add to Want List    History
Source # 30112 Other Sources
Entered by dr.unclear
Checksums shn-md5 , st5
Disc Counts 2 / 3
Media Size
Date Circulated
Date Added
5-4-2005
07/20/2005
Source Summary Recording by Ohr Weinberg. Master Audience Cassette : 2 Sony ECM-23F microphones > Nakamichi 550 Cassette Deck (Maxell XLII-S 90 Cassettes), Dolby B. Transfer: Master Cassette > Nakamichi Dragon > HHB CDR-830 Plus (by Ohr)> EAC > Sound Forge 5.0 (spliced tape flip during drums, fades, and cleanup) > CD Wave 1.71 > WAV > SHN (by Anne Cohen) 5/2005. 
  Archive
Source Information - Download Text | Download Zip
Grateful Dead - 5/4/81
Spectrum
Philadelphia, PA

Master Audience Cassette - recorded by Ohr Weinberg: 2 Sony ECM-23F microphones >
Nakamichi 550 Cassette Deck (Maxell XLII-S 90 Cassettes), Dolby B

Transfer: Master Cassette > Nakamichi Dragon > HHB CDR-830 Plus (by Ohr)
> EAC > Sound Forge 5.0 (spliced tape flip during drums, fades, and cleanup) > CD Wave 1.71 > WAV > SHN (by Anne Cohen) 5/2005.  Enjoy! : )

  
Set One:
d1t01 - tuning, Don't Ease Me In
d1t02 - Beat It On Down The Line
d1t03 - Jack A Roe >
d1t04 - Little Red Rooster
d1t05 - Cold Rain and Snow
d1t06 - Mama Tried >
d1t07 - Mexicali Blues
d1t08 - Althea
d1t09 - Looks Like Rain
d1t10 - Bertha >
d1t11 - Greatest Story Ever Told

Set Two:
d2t01 - tuning, audience
d2t02 - China Cat Sunflower >
d2t03 - I Know You Rider >
d2t04 - Samson and Delilah
d2t05 - To Lay Me Down
d3t01 - tuning
d3t02 - Playin' In The Band >
d3t03 - Drums >  
d3t04 - Nobody's Fault But Mine >
d3t05 - Lost Sailor >
d3t06 - Saint of Circumstance >
d3t07 - Black Peter >
d3t08 - Sugar Magnolia

Encore:
d3t09 - Brokedown Palace


SHNTOOL LEN OUTPUT:

    length     expanded size    cdr  WAVE problems  fmt   ratio  filename
     4:27.68       47258780 B   ---   --   ---xx    shn  0.5813  gd1981-05-04ohrd1t01.shn
     4:31.32       47879708 B   ---   --   ---xx    shn  0.5825  gd1981-05-04ohrd1t02.shn
     4:36.28       48752300 B   ---   --   ---xx    shn  0.5912  gd1981-05-04ohrd1t03.shn
    10:10.53      107728700 B   ---   --   ---xx    shn  0.5731  gd1981-05-04ohrd1t04.shn
     6:24.51       67857596 B   ---   --   ---xx    shn  0.5820  gd1981-05-04ohrd1t05.shn
     2:29.50       26401244 B   ---   --   ---xx    shn  0.5948  gd1981-05-04ohrd1t06.shn
     4:46.57       50584508 B   ---   --   ---xx    shn  0.5782  gd1981-05-04ohrd1t07.shn
     8:07.37       85993868 B   ---   --   ---xx    shn  0.5776  gd1981-05-04ohrd1t08.shn
    10:15.67      108643628 B   ---   --   ---xx    shn  0.5652  gd1981-05-04ohrd1t09.shn
     6:57.32       73634108 B   ---   --   ---xx    shn  0.6443  gd1981-05-04ohrd1t10.shn
     4:06.29       43462652 B   ---   --   ---xx    shn  0.6406  gd1981-05-04ohrd1t11.shn
     0:28.21        4988636 B   ---   --   ---xx    shn  0.4687  gd1981-05-04ohrd2t01.shn
     8:10.13       86466620 B   ---   --   ---xx    shn  0.5952  gd1981-05-04ohrd2t02.shn
     5:18.22       56146988 B   ---   --   ---xx    shn  0.6284  gd1981-05-04ohrd2t03.shn
     7:32.03       79739900 B   ---   --   ---xx    shn  0.6296  gd1981-05-04ohrd2t04.shn
     9:47.39      103638572 B   ---   --   ---xx    shn  0.5358  gd1981-05-04ohrd2t05.shn
     0:45.35        8020364 B   ---   --   ---xx    shn  0.5230  gd1981-05-04ohrd3t01.shn
    12:37.25      133593644 B   ---   --   ---xx    shn  0.6069  gd1981-05-04ohrd3t02.shn
    10:27.39      110694572 B   ---   --   ---xx    shn  0.5694  gd1981-05-04ohrd3t03.shn
     3:15.69       34560332 B   ---   --   ---xx    shn  0.5295  gd1981-05-04ohrd3t04.shn
     6:41.08       70755260 B   ---   --   ---xx    shn  0.5680  gd1981-05-04ohrd3t05.shn
     6:48.58       72107660 B   ---   --   ---xx    shn  0.6538  gd1981-05-04ohrd3t06.shn
     8:55.51       94493996 B   ---   --   ---xx    shn  0.5747  gd1981-05-04ohrd3t07.shn
     9:30.06      100562156 B   ---   --   ---xx    shn  0.6565  gd1981-05-04ohrd3t08.shn
     5:57.60       63115964 B   ---   --   ---xx    shn  0.5604  gd1981-05-04ohrd3t09.shn
   163:10.53     1727081756 B                            0.5913  (25 files)


Show Checksums
shn-md5
b9d91da51c088b4478eb3f0dc32fe9fd *gd1981-05-04ohrd1t01.shn
a15631dd6a95c4283376ef12df37654e *gd1981-05-04ohrd1t02.shn
0aac5552654babf3b8e7d739ba090ee9 *gd1981-05-04ohrd1t03.shn
311ce6da8185eea2dd8a37ddc832ffd2 *gd1981-05-04ohrd1t04.shn
02a494d50a2ecba3c00d35eaccafa536 *gd1981-05-04ohrd1t05.shn
1bd79a4a16c039e4305abb526b36a051 *gd1981-05-04ohrd1t06.shn
db3e8b672c857dc9801af77eb0d5391d *gd1981-05-04ohrd1t07.shn
fc9e2ad86f131bf4a304bd00bcc278b4 *gd1981-05-04ohrd1t08.shn
9b9730483615e9c87c41416a68e62b8c *gd1981-05-04ohrd1t09.shn
fc17c1b23a85b2a868c66b09c476dc64 *gd1981-05-04ohrd1t10.shn
7586fa93b7960111e956727b00e08146 *gd1981-05-04ohrd1t11.shn
c78da45e6b4c3a20a4ef926c9d9f0d82 *gd1981-05-04ohrd2t01.shn
097c90179e9305c1580882dc44f1c72c *gd1981-05-04ohrd2t02.shn
49884a143f545c7932fcebc10f5ee28f *gd1981-05-04ohrd2t03.shn
45aebbd240e76867fcaa863bb6475645 *gd1981-05-04ohrd2t04.shn
be8898044e0bd029a92d7e3a3203f1b8 *gd1981-05-04ohrd2t05.shn
87d709abbbfb58524e5e8bcabd84ded2 *gd1981-05-04ohrd3t01.shn
04f08314fd40118edde0c71f31c168af *gd1981-05-04ohrd3t02.shn
543542e9a1d18b71406149244d84f314 *gd1981-05-04ohrd3t03.shn
71d74c4a06babd4ad8741ac3c400ee7b *gd1981-05-04ohrd3t04.shn
51ab2e49ab23c7355bdf23a2673d9f32 *gd1981-05-04ohrd3t05.shn
026eca950403f1a0599efed9a08572cf *gd1981-05-04ohrd3t06.shn
a8ee33e0bcf73a3d3cc1b97655566c07 *gd1981-05-04ohrd3t07.shn
987d3385b3b3408792670d84d50fc3ae *gd1981-05-04ohrd3t08.shn
0d0aaf7ec88059db8782ca5b7673964e *gd1981-05-04ohrd3t09.shn
st5
becd0109b091ef9ee34c2cdf35e9ed9b [shntool] gd1981-05-04ohrd1t01.shn
8180aaba13eec69e59ce2ba3e454e02c [shntool] gd1981-05-04ohrd1t02.shn
f14efd494e3b8f0876faade5c5adcdf3 [shntool] gd1981-05-04ohrd1t03.shn
7a8f5096e6549b1a6295e8adfd3edbb7 [shntool] gd1981-05-04ohrd1t04.shn
29838d9f92923a6b6ba60385ef06627c [shntool] gd1981-05-04ohrd1t05.shn
bfd8f8eb0d0d10132062032e1fbaf2b4 [shntool] gd1981-05-04ohrd1t06.shn
035a9e6d78d4d8146c31530b19f572fc [shntool] gd1981-05-04ohrd1t07.shn
897b3d82471414c2379721b123836311 [shntool] gd1981-05-04ohrd1t08.shn
e4dacef8b17053cb47ead41a16e90125 [shntool] gd1981-05-04ohrd1t09.shn
5b031d523b1a2defec20f87aa3dfc780 [shntool] gd1981-05-04ohrd1t10.shn
585f82af0fa6723f47e53623a87208e8 [shntool] gd1981-05-04ohrd1t11.shn
7a753de6eae368aae7a47d07740386ad [shntool] gd1981-05-04ohrd2t01.shn
e5c81c299a4f91dfb709a2f658e13e1d [shntool] gd1981-05-04ohrd2t02.shn
fa094af5b0dea88037b8917304067616 [shntool] gd1981-05-04ohrd2t03.shn
c1c7cc785fa97e78416e9d1b29e32dba [shntool] gd1981-05-04ohrd2t04.shn
fa3a7a8c19636fd3cfbb6ac296bfe1b2 [shntool] gd1981-05-04ohrd2t05.shn
d539ddcc064a69bbde45ecb2ee690e53 [shntool] gd1981-05-04ohrd3t01.shn
c67486fff479ca9b06eaf8db6fe57753 [shntool] gd1981-05-04ohrd3t02.shn
055fc222c3a495bd834c558e543654d7 [shntool] gd1981-05-04ohrd3t03.shn
c487dd7e1e53b2ea956a594c65d618d5 [shntool] gd1981-05-04ohrd3t04.shn
83868b86716edb87d8774a2eb8a6b6ab [shntool] gd1981-05-04ohrd3t05.shn
a192208ed61102441fd97038b67ceef8 [shntool] gd1981-05-04ohrd3t06.shn
50e1ca9815c13387717b141534b5d46f [shntool] gd1981-05-04ohrd3t07.shn
4f86b1bbe66633a6a5fa3b6eea2423ec [shntool] gd1981-05-04ohrd3t08.shn
565ee273e0733b6611ba0c75943c2611 [shntool] gd1981-05-04ohrd3t09.shn

Comments
Add Comment
Other Sources (comments)
Master Soundboard Cassette... (0) flac16; 1st Gen... (0) flac24; Cassette... (0) flac16; 2 source... (0) flac16; Source Info:... (0) flac24; Source Info:... (0) flac16/48kHz; Source... (0)
Date User Comment